Tags
Language
Tags

Willy's Wonderland (2021)

Posted By: Tavaz
720p (HD) / BDRip IMDb
Willy's Wonderland (2021)

Willy's Wonderland (2021)
BDRip | MKV | 1280x538 | English | H264 @ 6099 kbps | AC-3 @ 640 kbps | 1 h 28 min | 4.24 GiB
Subtitles: 中文, English
Genre: Action, Horror, Comedy

When his car breaks down, a quiet loner agrees to clean an abandoned family fun center in exchange for repairs. He soon finds himself waging war against possessed animatronic mascots while trapped inside Willy's Wonderland.

092f3dc8d3d4eff089b54f05df4f966b.mkv (4.2 GB)



General
Unique ID : 331194168787726820983085690904388018868 (0xF929AD3CB36EB601D18BC7331403A2B4)
Complete name : ./092f3dc8d3d4eff089b54f05df4f966b.mkv
Format : Matroska
Format version : Version 4 / Version 2
File size : 4.24 GiB
Duration : 1 h 28 min
Overall bit rate : 6 843 kb/s
Movie name : Willy's Wonderland 2021 720p BluRay DD5.1 x264-BdC
Encoded date : UTC 2021-06-10 08:48:58
Writing application : mkvmerge v43.0.0 ('The Quartermaster') 64-bit
Writing library : libebml v1.3.10 + libmatroska v1.5.2

Video
ID : 1
Format : AVC
Format/Info : Advanced Video Codec
Format profile : High@L4.1
Format settings : CABAC / 12 Ref Frames
Format settings, CABAC : Yes
Format settings, RefFrames : 12 frames
Codec ID : V_MPEG4/ISO/AVC
Duration : 1 h 28 min
Bit rate : 6 099 kb/s
Width : 1 280 pixels
Height : 538 pixels
Display aspect ratio : 2.40:1
Frame rate mode : Constant
Frame rate : 23.976 (24000/1001) FPS
Color space : YUV
Chroma subsampling : 4:2:0
Bit depth : 8 bits
Scan type : Progressive
Bits/(Pixel*Frame) : 0.369
Stream size : 3.77 GiB (89%)
Writing library : x264 core 161 r3033 0d754ec
Encoding settings : cabac=1 / ref=12 / deblock=1:-3:-3 / analyse=0x3:0x133 / me=umh / subme=10 / psy=1 / psy_rd=1.00:0.00 / mixed_ref=1 / me_range=32 / chroma_me=1 / trellis=2 / 8x8dct=1 / cqm=0 / deadzone=21,11 / fast_pskip=0 / chroma_qp_offset=-2 / threads=12 / lookahead_threads=2 / sliced_threads=0 / nr=0 / decimate=0 / interlaced=0 / bluray_compat=0 / constrained_intra=0 / bframes=8 / b_pyramid=2 / b_adapt=2 / b_bias=0 / direct=3 / weightb=1 / open_gop=0 / weightp=2 / keyint=240 / keyint_min=23 / scenecut=40 / intra_refresh=0 / rc_lookahead=60 / rc=2pass / mbtree=0 / bitrate=6099 / ratetol=1.0 / qcomp=0.60 / qpmin=0 / qpmax=69 / qpstep=4 / cplxblur=20.0 / qblur=0.5 / vbv_maxrate=62500 / vbv_bufsize=78125 / nal_hrd=none / filler=0 / ip_ratio=1.40 / pb_ratio=1.30 / aq=3:0.80
Default : Yes
Forced : No
Color range : Limited
Color primaries : BT.709
Transfer characteristics : BT.709
Matrix coefficients : BT.709

Audio
ID : 2
Format : AC-3
Format/Info : Audio Coding 3
Format settings, Endianness : Big
Codec ID : A_AC3
Duration : 1 h 28 min
Bit rate mode : Constant
Bit rate : 640 kb/s
Channel(s) : 6 channels
Channel positions : Front: L C R, Side: L R, LFE
Sampling rate : 48.0 kHz
Frame rate : 31.250 FPS (1536 SPF)
Bit depth : 16 bits
Compression mode : Lossy
Stream size : 406 MiB (9%)
Language : English
Service kind : Complete Main
Default : Yes
Forced : No

Text #1
ID : 3
Format : PGS
Muxing mode : zlib
Codec ID : S_HDMV/PGS
Codec ID/Info : Picture based subtitle format used on BDs/HD-DVDs
Duration : 1 h 28 min
Bit rate : 60.0 kb/s
Count of elements : 2568
Stream size : 37.8 MiB (1%)
Language : English
Default : Yes
Forced : No

Text #2
ID : 4
Format : PGS
Muxing mode : zlib
Codec ID : S_HDMV/PGS
Codec ID/Info : Picture based subtitle format used on BDs/HD-DVDs
Duration : 1 h 27 min
Bit rate : 23.7 kb/s
Count of elements : 1112
Stream size : 14.8 MiB (0%)
Language : Chinese
Default : No
Forced : No

Text #3
ID : 5
Format : PGS
Muxing mode : zlib
Codec ID : S_HDMV/PGS
Codec ID/Info : Picture based subtitle format used on BDs/HD-DVDs
Duration : 1 h 27 min
Bit rate : 24.1 kb/s
Count of elements : 1112
Stream size : 15.1 MiB (0%)
Language : Chinese
Default : No
Forced : No

Text #4
ID : 6
Format : PGS
Muxing mode : zlib
Codec ID : S_HDMV/PGS
Codec ID/Info : Picture based subtitle format used on BDs/HD-DVDs
Duration : 1 h 27 min
Bit rate : 39.6 kb/s
Count of elements : 1112
Stream size : 24.7 MiB (1%)
Language : Chinese
Default : No
Forced : No

Text #5
ID : 7
Format : PGS
Muxing mode : zlib
Codec ID : S_HDMV/PGS
Codec ID/Info : Picture based subtitle format used on BDs/HD-DVDs
Duration : 1 h 27 min
Bit rate : 40.1 kb/s
Count of elements : 1112
Stream size : 25.0 MiB (1%)
Language : Chinese
Default : No
Forced : No

Menu
00:00:00.000 : :Chapter 01
00:07:18.355 : :Chapter 02
00:14:17.899 : :Chapter 03
00:22:17.044 : :Chapter 04
00:30:00.298 : :Chapter 05
00:37:14.983 : :Chapter 06
00:45:19.300 : :Chapter 07
00:52:48.999 : :Chapter 08
01:00:06.603 : :Chapter 09
01:10:51.372 : :Chapter 10
01:16:46.644 : :Chapter 11
01:23:06.148 : :Chapter 12





Willy's Wonderland (2021)


Willy's Wonderland (2021)


Willy's Wonderland (2021)


Willy's Wonderland (2021)


Willy's Wonderland (2021)