Subcategories

ZED - Winston Churchill: A Giant in the Century (2015)

Posted By: Tutorial
ZED - Winston Churchill: A Giant in the Century (2015)

ZED - Winston Churchill: A Giant in the Century (2015)
HDTV | 1280 x 720 | .MP4/AVC @ 3500 Kbps | 1 h 35 min | 2.42 GB
Audio: English AAC 160 Kbps, 2 channels | Subs: English
Genre: Documentary, Biography, History

Beyond the famous speeches and wealth of media material on the statesman, we span the century as seen from behind the scenes of an exceptional itinerary in order to capture the true dimension of one of the greatest European political figures. Like a thrilling biopic, by turn moving, funny and epic, our documentary is up to its hero.
Carefully remastered and colorized, the film draws from a wealth of visual and sound archives, to give an all-encompassing view of both the private and public man. Through the contrasted chapters of his existence, it thus offers a new, unseen before perspective on Churchill’s character and how he related to power and his contemporaries in order to lift the veil on a colourful, puzzling, paradoxical and captivating personality.

More info: IMDB

Related Documentariest:
BBC - World War Two: 1941 and the Man of Steel (2011)
BBC - Churchill's Desert War: The Road to El Alamein (2012)
BBC - The First World War from Above (2010)
Apocalypse: The Second World War (2009)
BBC - Churchill's First World War (2013)
BBC - Churchill's First World War (2013)
Channel 4 - Warlords (2005)
BBC - The First World War (2014)
BBC - Britain's Great War (2014)
History Channel - World War I : The Great War (2009)
BBC - World War One Remembered: Passchendaele (2017)
BBC - World War Two: 1942 and Hitler's Soft Underbelly (2012)
BBC - World War Two: 1941 and the Man of Steel (2011)

General
Complete name : Winston.Churchill.A.Giant.In.The.Century.mp4
Format : MPEG-4
Format profile : Base Media
Codec ID : isom (isom)
File size : 2.42 GiB
Duration : 1 h 35 min
Overall bit rate mode : Variable
Overall bit rate : 3 639 kb/s
Encoded date : UTC 2017-09-12 07:08:53
Tagged date : UTC 2017-09-12 07:08:53
Writing application : My MP4Box GUI 0.6.0.6

Video
ID : 1
Format : AVC
Format/Info : Advanced Video Codec
Format profile : High@L4.1
Format settings, CABAC : Yes
Format settings, ReFrames : 4 frames
Codec ID : avc1
Codec ID/Info : Advanced Video Coding
Duration : 1 h 35 min
Bit rate : 3 500 kb/s
Maximum bit rate : 11.3 Mb/s
Width : 1 280 pixels
Height : 720 pixels
Display aspect ratio : 16:9
Frame rate mode : Variable
Frame rate : 23.976 (24000/1001) FPS
Minimum frame rate : 23.974 FPS
Maximum frame rate : 23.981 FPS
Color space : YUV
Chroma subsampling : 4:2:0
Bit depth : 8 bits
Scan type : Progressive
Bits/(Pixel*Frame) : 0.158
Stream size : 2.31 GiB (95%)
Title : Winston.Churchil.A.Giant.In.The.Century.720p.HDTV.x264.AAC
Writing library : x264 core 130 r2273 b3065e6
Encoding settings : cabac=1 / ref=2 / deblock=1:0:0 / analyse=0x3:0x113 / me=hex / subme=4 / psy=1 / psy_rd=1.00:0.00 / mixed_ref=0 / me_range=16 / chroma_me=1 / trellis=1 / 8x8dct=1 / cqm=0 / deadzone=21,11 / fast_pskip=1 / chroma_qp_offset=0 / threads=6 / lookahead_threads=1 / sliced_threads=0 / nr=0 / decimate=1 / interlaced=0 / bluray_compat=0 / constrained_intra=0 / bframes=3 / b_pyramid=2 / b_adapt=1 / b_bias=0 / direct=1 / weightb=1 / open_gop=0 / weightp=1 / keyint=240 / keyint_min=24 / scenecut=40 / intra_refresh=0 / rc_lookahead=20 / rc=abr / mbtree=1 / bitrate=3500 / ratetol=1.0 / qcomp=0.60 / qpmin=0 / qpmax=69 / qpstep=4 / vbv_maxrate=62500 / vbv_bufsize=78125 / nal_hrd=none / ip_ratio=1.40 / aq=1:1.00
Encoded date : UTC 2017-09-11 22:49:49
Tagged date : UTC 2017-09-12 07:10:14
Color range : Limited
Color primaries : BT.709
Transfer characteristics : BT.709
Matrix coefficients : BT.709

Audio
ID : 2
Format : AAC
Format/Info : Advanced Audio Codec
Format profile : LC
Codec ID : 40
Duration : 1 h 35 min
Bit rate mode : Variable
Bit rate : 160 kb/s
Maximum bit rate : 287 kb/s
Channel(s) : 2 channels
Channel positions : Front: L R
Sampling rate : 44.1 kHz
Frame rate : 43.066 FPS (1024 spf)
Compression mode : Lossy
Stream size : 109 MiB (4%)
Title : Winston.Churchil.A.Giant.In.The.Century.720p.HDTV.x264.AAC.
Encoded date : UTC 2017-09-12 07:10:07
Tagged date : UTC 2017-09-12 07:10:14

Text
ID : 3
Format : Timed Text
Codec ID : tx3g
Duration : 1 h 35 min
Bit rate mode : Variable
Bit rate : 93 b/s
Stream size : 64.7 KiB (0%)
Title : Winston.Churchil.A.Giant.In.The.Century.720p.HDTV.x264.AAC.
Forced : No
Encoded date : UTC 2017-09-12 07:10:14
Tagged date : UTC 2017-09-12 07:10:14
Screenshots

ZED - Winston Churchill: A Giant in the Century (2015)

ZED - Winston Churchill: A Giant in the Century (2015)

ZED - Winston Churchill: A Giant in the Century (2015)

ZED - Winston Churchill: A Giant in the Century (2015)

Welcome to my blog - daily update!

ZED - Winston Churchill: A Giant in the Century (2015)