Tags
Language
Tags

Wolf Warrior 2 (2017)

Posted By: Tavaz
1080p (FullHD) / BDRip IMDb
Wolf Warrior 2 (2017)

Wolf Warrior 2 (2017)
BDRip | MKV | 1920x816 | 中文 / English | H265 @ 4788 kbps | E-AC-3 | 2 h 3 min | 5.57 GiB
Subtitles: العربية, Français, Deutsch, Español, Nederlands, English, Português, Română
Genre: War, Action, Drama

China's deadliest special forces operative settles into a quiet life on the sea. When sadistic mercenaries begin targeting nearby civilians, he must leave his newfound peace behind and return to his duties as a soldier and protector.

5f6e3178f7cd076074c2ddabb0169643.mkv (5.6 GB)



General
Unique ID : 128388484705154481258463911412769279182 (0x6096B9043B3CB562CA5F878594C4CCCE)
Complete name : ./5f6e3178f7cd076074c2ddabb0169643.mkv
Format : Matroska
Format version : Version 4 / Version 2
File size : 5.57 GiB
Duration : 2 h 3 min
Overall bit rate : 6 474 kb/s
Movie name : Wolf Warrior 2 (2017) (1080p BluRay x265 SAMPA)
Encoded date : UTC 2020-05-31 14:58:15
Writing application : mkvmerge v47.0.0 ('Black Flag') 64-bit
Writing library : libebml v1.3.10 + libmatroska v1.5.2
Cover : Yes
Attachments : cover.jpg
Writing frontend : StaxRip v2.0.4.0

Video
ID : 1
Format : HEVC
Format/Info : High Efficiency Video Coding
Format profile : Main 10@L4@Main
Codec ID : V_MPEGH/ISO/HEVC
Duration : 2 h 3 min
Bit rate : 4 789 kb/s
Width : 1 920 pixels
Height : 816 pixels
Display aspect ratio : 2.35:1
Frame rate mode : Constant
Frame rate : 24.000 FPS
Color space : YUV
Chroma subsampling : 4:2:0
Bit depth : 10 bits
Bits/(Pixel*Frame) : 0.127
Stream size : 4.12 GiB (74%)
Writing library : x265 3.2+2-g238998f4b+26:[Windows][GCC 8.3.0][64 bit] Yuuki 10bit+8bit+12bit
Encoding settings : rc=crf / crf=18.0000 / qcomp=0.60 / qpstep=4 / stats-write=0 / stats-read=0 / no-lossless / no-cu-lossless / aq-mode=4 / aq-strength=1.00 / cbqpoffs=0 / crqpoffs=0 / ipratio=1.40 / pbratio=1.30 / psy-rd=2.00 / psy-rdoq=1.50 / deblock=0:0 / ref=4 / limit-refs=3 / limit-modes / bframes=8 / b-adapt=2 / bframe-bias=0 / b-pyramid / no-b-intra / weightp / no-weightb / min-keyint=24 / max-keyint=250 / rc-lookahead=40 / gop-lookahead=0 / scenecut=40 / radl=0 / max-cu-size=64 / min-cu-size=8 / me=3 / subme=3 / merange=57 / rdoq-level=2 / rd=4 / rdpenalty=0 / dynamic-rd=0.00 / no-rd-refine / ––- / cutree / sao / rect / no-amp / open-gop / wpp / no-pmode / no-pme / no-psnr / no-ssim / nr-intra=0 / nr-inter=0 / no-constrained-intra / strong-intra-smoothing / max-tu-size=32 / tu-inter-depth=1 / tu-intra-depth=1 / limit-tu=0 / qg-size=32 / qpmax=69 / qpmin=0 / ––- / cpuid=1049583 / frame-threads=5 / numa-pools=16,16 / log-level=2 / input-csp=1 / input-res=1920x816 / interlace=0 / level-idc=0 / high-tier=1 / uhd-bd=0 / no-allow-non-conformance / no-repeat-headers / no-aud / no-hrd / info / hash=0 / no-temporal-layers / lookahead-slices=4 / no-splice / no-intra-refresh / no-ssim-rd / signhide / no-tskip / max-merge=3 / temporal-mvp / no-hme / no-analyze-src-pics / sao-non-deblock / selective-sao=4 / no-early-skip / rskip / no-fast-intra / no-tskip-fast / no-splitrd-skip / zone-count=0 / no-strict-cbr / no-rc-grain / no-const-vbv / sar=0 / overscan=0 / videoformat=5 / range=0 / colorprim=1 / transfer=1 / colormatrix=1 / chromaloc=0 / display-window=0 / cll=0,0 / min-luma=0 / max-luma=1023 / log2-max-poc-lsb=8 / vui-timing-info / vui-hrd-info / slices=1 / no-opt-qp-pps / no-opt-ref-list-length-pps / no-multi-pass-opt-rps / scenecut-bias=0.00 / no-opt-cu-delta-qp / no-aq-motion / no-hdr / no-hdr-opt / no-dhdr10-opt / no-idr-recovery-sei / analysis-reuse-level=5 / scale-factor=0 / refine-intra=0 / refine-inter=0 / refine-mv=1 / refine-ctu-distortion=0 / no-limit-sao / ctu-info=0 / no-lowpass-dct / refine-analysis-type=0 / copy-pic=1 / max-ausize-factor=1.0 / no-dynamic-refine / no-single-sei / no-hevc-aq / no-svt / no-field / qp-adaptation-range=1.00
Default : Yes
Forced : No
Color range : Limited
Color primaries : BT.709
Transfer characteristics : BT.709
Matrix coefficients : BT.709

Audio #1
ID : 2
Format : E-AC-3
Format/Info : Enhanced Audio Coding 3
Format profile : E-AC-3+Dep / E-AC-3
Format settings, Endianness : Big
Codec ID : A_EAC3
Duration : 2 h 3 min
Bit rate mode : Constant
Bit rate : 1 024 kb/s / 573 kb/s
Channel(s) : 8 channels / 6 channels
Channel positions : Front: L C R, Side: L R, Back: L R, LFE / Front: L C R, Side: L R, LFE
Sampling rate : 48.0 kHz
Frame rate : 187.500 FPS (256 SPF)
Compression mode : Lossy
Delay relative to video : 4 ms
Stream size : 902 MiB (16%)
Title : Mandarin/English (7.1) (E-AC3)
Language : Chinese
Service kind : Complete Main
Default : Yes
Forced : No

Audio #2
ID : 3
Format : AC-3
Format/Info : Audio Coding 3
Format settings, Endianness : Big
Codec ID : A_AC3
Duration : 2 h 3 min
Bit rate mode : Constant
Bit rate : 640 kb/s
Channel(s) : 6 channels
Channel positions : Front: L C R, Side: L R, LFE
Sampling rate : 48.0 kHz
Frame rate : 31.250 FPS (1536 SPF)
Bit depth : 16 bits
Compression mode : Lossy
Delay relative to video : 2 s 0 ms
Stream size : 564 MiB (10%)
Title : English Dub (5.1) (AC-3)
Language : English
Service kind : Complete Main
Default : No
Forced : No

Text #1
ID : 4
Format : VobSub
Muxing mode : zlib
Codec ID : S_VOBSUB
Codec ID/Info : Picture based subtitle format used on DVDs
Duration : 1 h 58 min
Bit rate : 5 341 b/s
Count of elements : 1005
Stream size : 4.51 MiB (0%)
Language : English
Default : Yes
Forced : No

Text #2
ID : 5
Format : VobSub
Muxing mode : zlib
Codec ID : S_VOBSUB
Codec ID/Info : Picture based subtitle format used on DVDs
Duration : 1 h 56 min
Bit rate : 2 077 b/s
Count of elements : 869
Stream size : 1.73 MiB (0%)
Language : Arabic
Default : No
Forced : No

Text #3
ID : 6
Format : VobSub
Muxing mode : zlib
Codec ID : S_VOBSUB
Codec ID/Info : Picture based subtitle format used on DVDs
Duration : 1 h 56 min
Bit rate : 4 442 b/s
Count of elements : 868
Stream size : 3.69 MiB (0%)
Language : Dutch
Default : No
Forced : No

Text #4
ID : 7
Format : VobSub
Muxing mode : zlib
Codec ID : S_VOBSUB
Codec ID/Info : Picture based subtitle format used on DVDs
Duration : 1 h 55 min
Bit rate : 3 462 b/s
Count of elements : 813
Stream size : 2.86 MiB (0%)
Language : French
Default : No
Forced : No

Text #5
ID : 8
Format : VobSub
Muxing mode : zlib
Codec ID : S_VOBSUB
Codec ID/Info : Picture based subtitle format used on DVDs
Duration : 1 h 58 min
Bit rate : 4 154 b/s
Count of elements : 924
Stream size : 3.51 MiB (0%)
Language : German
Default : No
Forced : No

Text #6
ID : 9
Format : VobSub
Muxing mode : zlib
Codec ID : S_VOBSUB
Codec ID/Info : Picture based subtitle format used on DVDs
Duration : 1 h 57 min
Bit rate : 3 610 b/s
Count of elements : 815
Stream size : 3.04 MiB (0%)
Language : Portuguese
Default : No
Forced : No

Text #7
ID : 10
Format : VobSub
Muxing mode : zlib
Codec ID : S_VOBSUB
Codec ID/Info : Picture based subtitle format used on DVDs
Duration : 1 h 53 min
Bit rate : 3 876 b/s
Count of elements : 822
Stream size : 3.15 MiB (0%)
Language : Romanian
Default : No
Forced : No

Text #8
ID : 11
Format : VobSub
Muxing mode : zlib
Codec ID : S_VOBSUB
Codec ID/Info : Picture based subtitle format used on DVDs
Duration : 1 h 55 min
Bit rate : 4 215 b/s
Count of elements : 922
Stream size : 3.48 MiB (0%)
Language : Spanish
Default : No
Forced : No

Menu
00:00:00.000 : en:Chapter 01
00:11:01.833 : en:Chapter 02
00:19:17.750 : en:Chapter 03
00:27:45.000 : en:Chapter 04
00:35:09.541 : en:Chapter 05
00:47:07.666 : en:Chapter 06
00:55:56.375 : en:Chapter 07
01:12:03.583 : en:Chapter 08
01:18:15.666 : en:Chapter 09
01:28:42.875 : en:Chapter 10
01:34:17.333 : en:Chapter 11
01:41:50.875 : en:Chapter 12
01:56:36.541 : en:Chapter 13





Wolf Warrior 2 (2017)


Wolf Warrior 2 (2017)


Wolf Warrior 2 (2017)


Wolf Warrior 2 (2017)


Wolf Warrior 2 (2017)