Tags
Language
Tags

Woman in Motion (2019)

Posted By: Without
1080p (FullHD) / WEB-DL IMDb
Woman in Motion (2019)

Woman in Motion (2019)
WEBRip 1080p | MP4 | 1 h 36 min | 1.83 GB | 1920x1080 | AVC@2500 kb/s | English AAC@224 kb/s, 2 ch
WEB-DL 720p | MKV | 1 h 36 min | 3.28 GB | 1280x720 | AVC@4233 kb/s | English AC3@640 kb/s, 6 ch
WEB-DL 1080p | MKV | 1 h 36 min | 5.82 GB | 1920x1080 | AVC@8003 kb/s | English AC3@640 kb/s, 6 ch
Subs: English
Genre: Documentary

Nichelle Nichols' daunting task to launch a national blitz for NASA, recruiting 8,000 of the nation's best and brightest, including the trailblazing astronauts who became the first Black, Asian and Latino men and women to fly in space.



General
Woman.in.Motion.Nichelle.Nichols.Star.Trek.and.the.Remaking.of.NASA.2019.1080p.WEBRip.x264.mp4
Format : MPEG-4
Format profile : Base Media
Codec ID : isom (isom/iso2/avc1/mp41)
File size : 1.83 GB
Duration : 1 h 36 min
Overall bit rate : 2725 kb/s
Encoded date : UTC 2021-06-03 14:30:36
Tagged date : UTC 2021-06-03 14:30:36
Writing application : Lavf58.20.100

Video
ID : 1
Format : AVC
Format/Info : Advanced Video Codec
Format profile : High@L4.1
Format settings, CABAC : Yes
Format settings, ReFrames : 4 frames
Codec ID : avc1
Codec ID/Info : Advanced Video Coding
Duration : 1 h 36 min
Bit rate : 2500 kb/s
Width : 1920 pixels
Height : 1080 pixels
Display aspect ratio : 16:9
Frame rate mode : Constant
Frame rate : 24.000 FPS
Color space : YUV
Chroma subsampling : 4:2:0
Bit depth : 8 bits
Scan type : Progressive
Bits/(Pixel*Frame) : 0.050
Stream size : 1.68 GB (92%)
Writing library : x264 core 152 r2851M ba24899
Encoding settings : cabac=1 / ref=4 / deblock=1:-1:-1 / analyse=0x3:0x113 / me=umh / subme=9 / psy=1 / psy_rd=1.00:0.15 / mixed_ref=1 / me_range=24 / chroma_me=1 / trellis=2 / 8x8dct=1 / cqm=0 / deadzone=21,11 / fast_pskip=1 / chroma_qp_offset=-3 / threads=16 / lookahead_threads=4 / sliced_threads=0 / nr=0 / decimate=1 / interlaced=0 / bluray_compat=0 / constrained_intra=0 / bframes=3 / b_pyramid=2 / b_adapt=2 / b_bias=0 / direct=3 / weightb=1 / open_gop=0 / weightp=2 / keyint=250 / keyint_min=25 / scenecut=40 / intra_refresh=0 / rc_lookahead=50 / rc=2pass / mbtree=1 / bitrate=2500 / ratetol=1.0 / qcomp=0.60 / qpmin=0 / qpmax=69 / qpstep=4 / cplxblur=20.0 / qblur=0.5 / vbv_maxrate=31250 / vbv_bufsize=31250 / nal_hrd=none / filler=0 / ip_ratio=1.40 / aq=3:1.00
Encoded date : UTC 2021-06-03 14:30:36
Tagged date : UTC 2021-06-03 14:30:36

Audio
ID : 2
Format : AAC
Format/Info : Advanced Audio Codec
Format profile : LC
Codec ID : 40
Duration : 1 h 36 min
Bit rate mode : Constant
Bit rate : 224 kb/s
Channel(s) : 2 channels
Channel(s)_Original : 6 channels
Channel positions : Front: L C R, Side: L R, LFE
Sampling rate : 48.0 kHz
Frame rate : 46.875 FPS (1024 spf)
Compression mode : Lossy
Stream size : 154 MB (8%)
Language : English
Default : Yes
Alternate group : 1
Encoded date : UTC 2021-06-03 14:30:36
Tagged date : UTC 2021-06-03 14:30:36


General
Woman.in.Motion.Nichelle.Nichols.Star.Trek.and.the.Remaking.of.NASA.2019.720p.WEB.h264-KOGi.mkv
Format : Matroska
Format version : Version 4 / Version 2
File size : 3.28 GB
Duration : 1 h 36 min
Overall bit rate : 4875 kb/s
Writing application : mkvmerge v55.0.0 ('Waiting For Space') 64-bit
Writing library : libebml v1.4.2 + libmatroska v1.6.4

Video
ID : 1
Format : AVC
Format/Info : Advanced Video Codec
Format profile : High@L3.1
Format settings, CABAC : Yes
Format settings, ReFrames : 4 frames
Codec ID : V_MPEG4/ISO/AVC
Duration : 1 h 36 min
Bit rate mode : Constant
Bit rate : 4233 kb/s
Nominal bit rate : 6000 kb/s
Width : 1280 pixels
Height : 720 pixels
Display aspect ratio : 16:9
Frame rate mode : Constant
Frame rate : 24.000 FPS
Color space : YUV
Chroma subsampling : 4:2:0
Bit depth : 8 bits
Scan type : Progressive
Bits/(Pixel*Frame) : 0.191
Stream size : 2.85 GB (87%)
Language : English
Default : Yes
Forced : No
Color range : Limited
Color primaries : BT.709
Transfer characteristics : BT.709
Matrix coefficients : BT.709

Audio
ID : 2
Format : E-AC-3
Format/Info : Enhanced Audio Coding 3
Format settings, Endianness : Big
Codec ID : A_EAC3
Duration : 1 h 36 min
Bit rate mode : Constant
Bit rate : 640 kb/s
Channel(s) : 6 channels
Channel positions : Front: L C R, Side: L R, LFE
Sampling rate : 48.0 kHz
Frame rate : 187.500 FPS (256 spf)
Compression mode : Lossy
Stream size : 441 MB (13%)
Language : English
Default : Yes
Forced : No

Text
ID : 3
Format : UTF-8
Codec ID : S_TEXT/UTF8
Codec ID/Info : UTF-8 Plain Text
Duration : 1 h 33 min
Bit rate : 90 b/s
Count of elements : 1769
Stream size : 61.7 KiB (0%)
Title : English (SDH)
Language : English
Default : No
Forced : No


General
Woman.in.Motion.Nichelle.Nichols.Star.Trek.and.the.Remaking.of.NASA.2019.1080p.WEB.h264-KOGi.mkv
Format : Matroska
Format version : Version 4 / Version 2
File size : 5.82 GB
Duration : 1 h 36 min
Overall bit rate : 8645 kb/s
Writing application : mkvmerge v55.0.0 ('Waiting For Space') 64-bit
Writing library : libebml v1.4.2 + libmatroska v1.6.4

Video
ID : 1
Format : AVC
Format/Info : Advanced Video Codec
Format profile : High@L4
Format settings, CABAC : Yes
Format settings, ReFrames : 4 frames
Codec ID : V_MPEG4/ISO/AVC
Duration : 1 h 36 min
Bit rate : 8003 kb/s
Width : 1920 pixels
Height : 1080 pixels
Display aspect ratio : 16:9
Frame rate mode : Constant
Frame rate : 24.000 FPS
Color space : YUV
Chroma subsampling : 4:2:0
Bit depth : 8 bits
Scan type : Progressive
Bits/(Pixel*Frame) : 0.161
Stream size : 5.39 GB (93%)
Language : English
Default : Yes
Forced : No
Color range : Limited
Color primaries : BT.709
Transfer characteristics : BT.709
Matrix coefficients : BT.709

Audio
ID : 2
Format : E-AC-3
Format/Info : Enhanced Audio Coding 3
Format settings, Endianness : Big
Codec ID : A_EAC3
Duration : 1 h 36 min
Bit rate mode : Constant
Bit rate : 640 kb/s
Channel(s) : 6 channels
Channel positions : Front: L C R, Side: L R, LFE
Sampling rate : 48.0 kHz
Frame rate : 187.500 FPS (256 spf)
Compression mode : Lossy
Stream size : 441 MB (7%)
Language : English
Default : Yes
Forced : No

Text
ID : 3
Format : UTF-8
Codec ID : S_TEXT/UTF8
Codec ID/Info : UTF-8 Plain Text
Duration : 1 h 33 min
Bit rate : 90 b/s
Count of elements : 1769
Stream size : 61.7 KiB (0%)
Title : English (SDH)
Language : English
Default : No
Forced : No



WEBRip 1080p Screenshots

Woman in Motion (2019)

Woman in Motion (2019)

Woman in Motion (2019)


WEB-DL 720p Screenshots

Woman in Motion (2019)

Woman in Motion (2019)

Woman in Motion (2019)


WEB-DL 1080p Screenshots

Woman in Motion (2019)

Woman in Motion (2019)

Woman in Motion (2019)


Come Visit My Blog (•‿•)