Tags
Language
Tags
July 2024
Su Mo Tu We Th Fr Sa
30 1 2 3 4 5 6
7 8 9 10 11 12 13
14 15 16 17 18 19 20
21 22 23 24 25 26 27
28 29 30 31 1 2 3

Liliana Cavani - Women of the Resistance (1965)

Posted By: Tutorial
1080p (FullHD) / BluRay
Liliana Cavani - Women of the Resistance (1965)

Liliana Cavani - Women of the Resistance (1965)
BluRay | 1920 x 1080 | .MKV/AVC @ 18.0 Mbps | 49 min 56 s | 6.35 GB
Audio: Italiano AC-3 192 Kbps, 1 channels | Subs: English
Genre: Documentary

Documentary featuring interviews with female partisans who participated in the resistance and survived the German invasion of Italy in the 1940's.

General
Unique ID : 239070000635950398348752195887354645516 (0xB3DB3511CE4A2A920B87D19731F88C0C)
Complete name : Women.of.the.Resistanc.mkv
Format : Matroska
Format version : Version 4 / Version 2
File size : 6.35 GiB
Duration : 49 min 56 s
Overall bit rate mode : Variable
Overall bit rate : 18.2 Mb/s
Encoded date : UTC 2019-07-17 01:59:35
Writing application : mkvmerge v35.0.0 ('All The Love In The World') 64-bit
Writing library : libebml v1.3.9 + libmatroska v1.5.2

Video
ID : 1
Format : AVC
Format/Info : Advanced Video Codec
Format profile : High@L4.1
Format settings, CABAC : Yes
Format settings, ReFrames : 4 frames
Codec ID : V_MPEG4/ISO/AVC
Duration : 49 min 56 s
Bit rate mode : Variable
Bit rate : 18.0 Mb/s
Maximum bit rate : 37.0 Mb/s
Width : 1 920 pixels
Height : 1 080 pixels
Display aspect ratio : 16:9
Frame rate mode : Constant
Frame rate : 23.976 (24000/1001) FPS
Color space : YUV
Chroma subsampling : 4:2:0
Bit depth : 8 bits
Scan type : Progressive
Bits/(Pixel*Frame) : 0.362
Stream size : 6.28 GiB (99%)
Default : Yes
Forced : No

Audio
ID : 2
Format : AC-3
Format/Info : Audio Coding 3
Format settings, Endianness : Big
Codec ID : A_AC3
Duration : 49 min 56 s
Bit rate mode : Constant
Bit rate : 192 kb/s
Channel(s) : 1 channel
Channel positions : Front: C
Sampling rate : 48.0 kHz
Frame rate : 31.250 FPS (1536 spf)
Bit depth : 16 bits
Compression mode : Lossy
Stream size : 68.6 MiB (1%)
Language : Italian
Service kind : Complete Main
Default : Yes
Forced : No

Text
ID : 3
Format : PGS
Muxing mode : zlib
Codec ID : S_HDMV/PGS
Codec ID/Info : Picture based subtitle format used on BDs/HD-DVDs
Duration : 49 min 18 s
Bit rate : 86.1 kb/s
Count of elements : 1536
Stream size : 30.4 MiB (0%)
Language : English
Default : Yes
Forced : No
Screenshots

Liliana Cavani - Women of the Resistance (1965)

Liliana Cavani - Women of the Resistance (1965)

Liliana Cavani - Women of the Resistance (1965)

Welcome to my blog - daily update!