Tags
Language
Tags
June 2024
Su Mo Tu We Th Fr Sa
26 27 28 29 30 31 1
2 3 4 5 6 7 8
9 10 11 12 13 14 15
16 17 18 19 20 21 22
23 24 25 26 27 28 29
30 1 2 3 4 5 6

BBC - World War Two: 1941 and the Man of Steel (2011)

Posted By: Tutorial
720p (HD) / HDTV
BBC - World War Two: 1941 and the Man of Steel (2011)

BBC - World War Two: 1941 and the Man of Steel (2011)
HDTV | 1280 x 720 | .MKV/AVC @ 4000 Kbps | 1h 29mn | 2.61 GB
Audio: English AC-3 192 Kbps, 2 channels | Subs: English
Genre: Documentary, History, War

Marking the 70th anniversary of the Nazi invasion of the Soviet Union in 1941, historian Professor David Reynolds re-assesses Stalin's role in the life and death struggle between Germany and Russia in World War Two, which, he argues, was ultimately more critical for British survival than 'Our Finest Hour' in the Battle of Britain itself.
The name Stalin means 'man of steel', but Reynolds's penetrating new account reveals how the reality of Stalin's war in 1941 did not live up to that name. Travelling to Russian battlefield locations, he charts how Russia was almost annihilated within a few months as Stalin lurched from crisis to crisis, coming close to a nervous breakdown.
Reynolds shows how Stalin learnt to compromise in order to win, listening to his generals and downplaying communist ideology to appeal instead to the Russian people's nationalist fighting spirit. He also squares up to the terrible moral dilemma at the heart of World War Two. Using original telegrams and official documents, he looks afresh at Winston Churchill's controversial visit to Moscow in 1942 and re-examines how Britain and America were drawn into alliance with Stalin, a dictator almost as murderous as the Nazi enemy.

also You can look my other last: History-posts

General
Unique ID : 249408314467473619746551816810946211491 (0xBBA24B4B86FEFBADB5B9396A8CD1AEA3)
Complete name : World.War.Two.1941.and.the.Man.of.Steel.mkv
Format : Matroska
Format version : Version 2
File size : 2.61 GiB
Duration : 1h 29mn
Overall bit rate : 4 193 Kbps
Encoded date : UTC 2011-06-16 09:32:09
Writing application : mkvmerge v4.8.0 ('I Got The…') built on May 24 2011 03:12:58
Writing library : libebml v1.2.0 + libmatroska v1.1.0

Video
ID : 1
Format : AVC
Format/Info : Advanced Video Codec
Format profile : High@L4.1
Format settings, CABAC : Yes
Format settings, ReFrames : 4 frames
Codec ID : V_MPEG4/ISO/AVC
Duration : 1h 29mn
Bit rate : 4 000 Kbps
Width : 1 280 pixels
Height : 720 pixels
Display aspect ratio : 16:9
Frame rate : 25.000 fps
Color space : YUV
Chroma subsampling : 4:2:0
Bit depth : 8 bits
Scan type : Progressive
Bits/(Pixel*Frame) : 0.174
Stream size : 2.44 GiB (93%)
Writing library : x264 core 115 r1995 c1e60b9
Encoding settings : cabac=1 / ref=4 / deblock=1:0:0 / analyse=0x3:0x113 / me=umh / subme=9 / psy=1 / psy_rd=1.00:0.00 / mixed_ref=1 / me_range=24 / chroma_me=1 / trellis=1 / 8x8dct=1 / cqm=0 / deadzone=21,11 / fast_pskip=0 / chroma_qp_offset=-2 / threads=3 / sliced_threads=0 / nr=0 / decimate=1 / interlaced=0 / bluray_compat=0 / constrained_intra=0 / bframes=3 / b_pyramid=2 / b_adapt=1 / b_bias=0 / direct=1 / weightb=1 / open_gop=0 / weightp=2 / keyint=125 / keyint_min=25 / scenecut=40 / intra_refresh=0 / rc_lookahead=40 / rc=2pass / mbtree=1 / bitrate=4000 / ratetol=1.0 / qcomp=0.60 / qpmin=0 / qpmax=69 / qpstep=4 / cplxblur=20.0 / qblur=0.5 / ip_ratio=1.40 / aq=1:1.00
Language : English
Default : Yes
Forced : No

Audio
ID : 2
Format : AC-3
Format/Info : Audio Coding 3
Mode extension : CM (complete main)
Codec ID : A_AC3
Duration : 1h 29mn
Bit rate mode : Constant
Bit rate : 192 Kbps
Channel(s) : 2 channels
Channel positions : Front: L R
Sampling rate : 48.0 KHz
Bit depth : 16 bits
Compression mode : Lossy
Stream size : 123 MiB (5%)
Language : English
Default : Yes
Forced : No

Text
ID : 3
Format : UTF-8
Codec ID : S_TEXT/UTF8
Codec ID/Info : UTF-8 Plain Text
Language : English
Default : No
Forced : No
Screenshots

BBC - World War Two: 1941 and the Man of Steel (2011)

BBC - World War Two: 1941 and the Man of Steel (2011)

BBC - World War Two: 1941 and the Man of Steel (2011)

BBC - World War Two: 1941 and the Man of Steel (2011)

BBC - World War Two: 1941 and the Man of Steel (2011)

Welcome to my blog - daily update!