World Natural Heritage Colombia 3D (2012)

Posted By: Polik88
World Natural Heritage Colombia 3D (2012)

World Natural Heritage Colombia 3D (2012)
BDRip | English | MKV (H264) 23.976 fps 14.4 Mbps | 1920x1080 | DTS 755 Kbps 48.0 khz | 51mn 54s | 5.59 GB
Genre: Documentary

From the Pacific coast through the mangroves to the tropical rain forests of Costa Rica. In this document you will experience pure jungle. Meets iguanas, venomous snakes and capuchin monkeys - just three of the many thousands of species of animals that can be found here. Highlight of our expedition in the tropical rainforest of Costa Rica is the encounter with one of the last indigenous peoples of this earth. The Maleku Indians have lived for centuries in harmony with the nature of the rainforest and maintain this tradition today. Join us on our expedition in one of the last paradises on earth, the tropical rainforest in the world heritage site of Guanacaste. Filmed in 3D. interferer set: A fantastic journey into the Garden of Eden, Key Facts: - World Heritage Site by UNESCO - a seal of original nature - filmed in real 3D for the best image quality - with an exciting and intelligent comment - Fascinating pictures of one of the last paradises of our Earth.
General
Complete name : World.Natural.Heritage.Colombia.2012.mkv
Format : Matroska
Format version : Version 4 / Version 2
File size : 5.59 GiB
Duration : 51mn 54s
Overall bit rate : 15.4 Mbps
Encoded date : UTC 2013-02-12 09:15:39
Writing application : mkvmerge v6.0.0 ('Coming Up For Air') built on Jan 20 2013 09:52:00
Writing library : libebml v1.3.0 + libmatroska v1.4.0

Video
ID : 1
Format : AVC
Format/Info : Advanced Video Codec
Format profile : High@L4.1
MultiView_Count : 2
MultiView_Layout : Top-Bottom (left eye first)
Format settings, CABAC : Yes
Format settings, ReFrames : 4 frames
Codec ID : V_MPEG4/ISO/AVC
Duration : 51mn 54s
Bit rate : 14.4 Mbps
Width : 1 920 pixels
Height : 1 080 pixels
Display aspect ratio : 16:9
Frame rate : 23.976 fps
Color space : YUV
Chroma subsampling : 4:2:0
Bit depth : 8 bits
Scan type : Progressive
Bits/(Pixel*Frame) : 0.289
Stream size : 5.21 GiB (93%)
Writing library : x264 core 129 r2245 bc13772
Encoding settings : cabac=1 / ref=4 / deblock=1:-3:-3 / analyse=0x3:0x113 / me=umh / subme=9 / psy=1 / psy_rd=1.00:0.15 / mixed_ref=1 / me_range=16 / chroma_me=1 / trellis=1 / 8x8dct=1 / cqm=0 / deadzone=21,11 / fast_pskip=1 / chroma_qp_offset=-3 / threads=12 / lookahead_threads=2 / sliced_threads=0 / nr=0 / decimate=1 / interlaced=0 / bluray_compat=0 / constrained_intra=0 / bframes=6 / b_pyramid=2 / b_adapt=1 / b_bias=0 / direct=3 / weightb=1 / open_gop=0 / weightp=2 / keyint=250 / keyint_min=23 / scenecut=40 / intra_refresh=0 / rc_lookahead=40 / rc=crf / mbtree=1 / crf=19.0 / qcomp=0.60 / qpmin=10 / qpmax=69 / qpstep=4 / vbv_maxrate=40000 / vbv_bufsize=30000 / crf_max=0.0 / nal_hrd=none / ip_ratio=1.40 / aq=1:1.00
Default : Yes
Forced : No

Audio
ID : 2
Format : DTS
Format/Info : Digital Theater Systems
Codec ID : A_DTS
Duration : 51mn 54s
Bit rate mode : Constant
Bit rate : 755 Kbps
Channel(s) : 6 channels
Channel positions : Front: L C R, Side: L R, LFE
Sampling rate : 48.0 KHz
Bit depth : 24 bits
Compression mode : Lossy
Stream size : 280 MiB (5%)
Language : English
Default : Yes
Forced : No

Screenshots

World Natural Heritage Colombia 3D (2012)

World Natural Heritage Colombia 3D (2012)

World Natural Heritage Colombia 3D (2012)

no mirrors please, Follow The Rules
Visit Polik88 Blog Here
no password