CuriosityStream - Worlds Best Dinosaur Fossil (2017)

Posted By: notbanned
CuriosityStream - Worlds Best Dinosaur Fossil (2017)

CuriosityStream - Worlds Best Dinosaur Fossil (2017)
HDTV 720p | MP4 | 1280x720 | AVC@4200 Kbps | English AAC@160 Kbps | 2 channels | 15 min 58 s | 501 MiB
HDTV 1080p | MP4 | 1920x1080 | AVC@8029 Kbps | English AAC@160 Kbps | 2 channels | 15 min 58 s | 939 MiB
Genre: Documentary

An extraordinary new discovery of a dinosaur fossil so pristine and complete, that it shows off the texture, patterns, and colour of a prehistoric giant. Discover this brand new species that roamed during the late Jurassic and Cretaceous periods. The Royal Tyrrell Museum in Alberta has spent five years and over 7,000 hours preparing the fossil for research and display.


General
Complete name : Worlds.Best.Dinosaur.Fossil.720p.mp4
Format : MPEG-4
Format profile : Base Media / Version 2
Codec ID : mp42 (mp42/isom/avc1)
File size : 501 MiB
Duration : 15 min 58 s
Overall bit rate mode : Variable
Overall bit rate : 4 388 kb/s

Video
ID : 1
Format : AVC
Format/Info : Advanced Video Codec
Format profile : High@L4.1
Format settings, CABAC : Yes
Format settings, ReFrames : 4 frames
Codec ID : avc1
Codec ID/Info : Advanced Video Coding
Duration : 15 min 58 s
Bit rate : 4 200 kb/s
Width : 1 280 pixels
Height : 720 pixels
Display aspect ratio : 16:9
Frame rate mode : Constant
Frame rate : 29.970 (30000/1001) FPS
Color space : YUV
Chroma subsampling : 4:2:0
Bit depth : 8 bits
Scan type : Progressive
Bits/(Pixel*Frame) : 0.152
Stream size : 482 MiB (96%)
Writing library : x264 core 130 r2273 b3065e6
Encoding settings : cabac=1 / ref=2 / deblock=1:0:0 / analyse=0x3:0x113 / me=hex / subme=4 / psy=1 / psy_rd=1.00:0.00 / mixed_ref=0 / me_range=16 / chroma_me=1 / trellis=1 / 8x8dct=1 / cqm=0 / deadzone=21,11 / fast_pskip=1 / chroma_qp_offset=0 / threads=6 / lookahead_threads=1 / sliced_threads=0 / nr=0 / decimate=1 / interlaced=0 / bluray_compat=0 / constrained_intra=0 / bframes=3 / b_pyramid=2 / b_adapt=1 / b_bias=0 / direct=1 / weightb=1 / open_gop=0 / weightp=1 / keyint=300 / keyint_min=30 / scenecut=40 / intra_refresh=0 / rc_lookahead=20 / rc=abr / mbtree=1 / bitrate=4200 / ratetol=1.0 / qcomp=0.60 / qpmin=0 / qpmax=69 / qpstep=4 / vbv_maxrate=62500 / vbv_bufsize=78125 / nal_hrd=none / ip_ratio=1.40 / aq=1:1.00
Encoded date : UTC 2017-10-24 01:22:50
Tagged date : UTC 2017-10-24 01:51:36
Color range : Limited
Color primaries : BT.709
Transfer characteristics : BT.709
Matrix coefficients : BT.709

Audio
ID : 2
Format : AAC
Format/Info : Advanced Audio Codec
Format profile : LC
Codec ID : 40
Duration : 15 min 58 s
Bit rate mode : Variable
Bit rate : 160 kb/s
Maximum bit rate : 292 kb/s
Channel(s) : 2 channels
Channel positions : Front: L R
Sampling rate : 44.1 kHz
Frame rate : 43.066 FPS (1024 spf)
Compression mode : Lossy
Stream size : 18.2 MiB (4%)
Title : Stereo
Encoded date : UTC 2017-10-24 01:22:50
Tagged date : UTC 2017-10-24 01:51:36


General
Complete name : Worlds.Best.Dinosaur.Fossil.1080p.mp4
Format : MPEG-4
Format profile : Base Media / Version 2
Codec ID : mp42 (mp42/isom/avc1)
File size : 939 MiB
Duration : 15 min 58 s
Overall bit rate mode : Variable
Overall bit rate : 8 221 kb/s

Video
ID : 1
Format : AVC
Format/Info : Advanced Video Codec
Format profile : High@L4.1
Format settings, CABAC : Yes
Format settings, ReFrames : 4 frames
Codec ID : avc1
Codec ID/Info : Advanced Video Coding
Duration : 15 min 58 s
Bit rate : 8 029 kb/s
Width : 1 920 pixels
Height : 1 080 pixels
Display aspect ratio : 16:9
Frame rate mode : Constant
Frame rate : 29.970 (30000/1001) FPS
Color space : YUV
Chroma subsampling : 4:2:0
Bit depth : 8 bits
Scan type : Progressive
Bits/(Pixel*Frame) : 0.129
Stream size : 920 MiB (98%)
Writing library : x264 core 130 r2273 b3065e6
Encoding settings : cabac=1 / ref=2 / deblock=1:0:0 / analyse=0x3:0x113 / me=hex / subme=4 / psy=1 / psy_rd=1.00:0.00 / mixed_ref=0 / me_range=16 / chroma_me=1 / trellis=1 / 8x8dct=1 / cqm=0 / deadzone=21,11 / fast_pskip=1 / chroma_qp_offset=0 / threads=6 / lookahead_threads=1 / sliced_threads=0 / nr=0 / decimate=1 / interlaced=0 / bluray_compat=0 / constrained_intra=0 / bframes=3 / b_pyramid=2 / b_adapt=1 / b_bias=0 / direct=1 / weightb=1 / open_gop=0 / weightp=1 / keyint=300 / keyint_min=30 / scenecut=40 / intra_refresh=0 / rc_lookahead=20 / rc=abr / mbtree=1 / bitrate=8029 / ratetol=1.0 / qcomp=0.60 / qpmin=0 / qpmax=69 / qpstep=4 / vbv_maxrate=62500 / vbv_bufsize=78125 / nal_hrd=none / ip_ratio=1.40 / aq=1:1.00
Encoded date : UTC 2017-10-23 23:33:35
Tagged date : UTC 2017-10-24 00:29:48
Color range : Limited
Color primaries : BT.709
Transfer characteristics : BT.709
Matrix coefficients : BT.709

Audio
ID : 2
Format : AAC
Format/Info : Advanced Audio Codec
Format profile : LC
Codec ID : 40
Duration : 15 min 58 s
Bit rate mode : Variable
Bit rate : 160 kb/s
Maximum bit rate : 300 kb/s
Channel(s) : 2 channels
Channel positions : Front: L R
Sampling rate : 44.1 kHz
Frame rate : 43.066 FPS (1024 spf)
Compression mode : Lossy
Stream size : 18.2 MiB (2%)
Title : Stereo
Encoded date : UTC 2017-10-23 23:33:35
Tagged date : UTC 2017-10-24 00:29:48


Screenshots 720p:

CuriosityStream - Worlds Best Dinosaur Fossil (2017)

CuriosityStream - Worlds Best Dinosaur Fossil (2017)

CuriosityStream - Worlds Best Dinosaur Fossil (2017)

CuriosityStream - Worlds Best Dinosaur Fossil (2017)

Screenshots 1080p:

CuriosityStream - Worlds Best Dinosaur Fossil (2017)

CuriosityStream - Worlds Best Dinosaur Fossil (2017)

CuriosityStream - Worlds Best Dinosaur Fossil (2017)

CuriosityStream - Worlds Best Dinosaur Fossil (2017)