BBC - The Worst Jobs In History (Season 1) (2004)

Posted By: vivid23
BBC - The Worst Jobs In History (Season 1) (2004)

BBC - The Worst Jobs In History (Season 1) (2004)
DVDrip | 688x384 | AVI/XviD @ 1997 Kbps | 6x48mn | Audio: English MP3 128 kbps, 2 channels | Subs: None | 6x744 MB
Genre: Documentary

Tony Robinson has set out to investigate the underbelly of British history through 2,000 years of wretched employment—whether it's swilling out the crotch of a knight's soiled armor or collecting human waste to turn into gunpowder. Covering the Roman invasion to the reign of Queen Victoria, Robinson uncovers an unseen army undertaking arduous, hazardous, deeply unpleasant work. The very names "Toad Eater," "Vomit Collector," "Spit Boy," and "Seeker of the Dead" underline a fairly disgusting history. As he delves into the grime of how life was for the ordinary person, he brings "Gong Scourers" (Tudor cesspit cleaners), "Pure Collectors" (Victorian pooper-scoopers), and "Resurrection Men" (Georgian body snatchers) blinking into the limelight to provide a vivid alternative history of Britain.

Season 1

Episode 1: Dark Ages
Episode 2: Middle Ages
Episode 3: Tudors
Episode 4: Stuarts
Episode 5: Georgians
Episode 6: Victorians

More info

Video
ID : 0
Format : MPEG-4 Visual
Format settings, BVOP : Yes
Format settings, QPel : No
Format settings, GMC : No warppoints
Format settings, Matrix : Default (H.263)
Codec ID : DX50
Codec ID/Hint : DivX 5
Duration : 48mn 45s
Bit rate : 1 997 Kbps
Width : 688 pixels
Height : 384 pixels
Display aspect ratio : 16:9
Frame rate : 25.000 fps
Color space : YUV
Chroma subsampling : 4:2:0
Bit depth : 8 bits
Scan type : Progressive
Compression mode : Lossy
Bits/(Pixel*Frame) : 0.302
Stream size : 696 MiB (94%)
Writing library : DivX 6.4.0 (UTC 2006-10-03)

Audio
ID : 1
Format : MPEG Audio
Format version : Version 1
Format profile : Layer 3
Mode : Dual mono
Codec ID : 55
Codec ID/Hint : MP3
Duration : 48mn 45s
Bit rate mode : Constant
Bit rate : 128 Kbps
Channel(s) : 2 channels
Sampling rate : 48.0 KHz
Compression mode : Lossy
Stream size : 44.6 MiB (6%)
Alignment : Aligned on interleaves
Interleave, duration : 40 ms (1.00 video frame)
Interleave, preload duration : 504 ms
Language : English


BBC - The Worst Jobs In History (Season 1) (2004)

BBC - The Worst Jobs In History (Season 1) (2004)


Feel free to contact me when links are dead



http://filepost.com/files/2453e24b/worstjobs_01.part1.rar
http://filepost.com/files/929147d1/worstjobs_01.part2.rar
http://filepost.com/files/3c394655/worstjobs_01.part3.rar
http://filepost.com/files/569751f6/worstjobs_02.part1.rar
http://filepost.com/files/afd67e7m/worstjobs_02.part2.rar
http://filepost.com/files/m34bb362/worstjobs_02.part3.rar
http://filepost.com/files/68a598ee/worstjobs_03.part1.rar
http://filepost.com/files/9df2m3f9/worstjobs_03.part2.rar
http://filepost.com/files/77cab9am/worstjobs_03.part3.rar
http://filepost.com/files/5653b546/worstjobs_04.part1.rar
http://filepost.com/files/aa12a86d/worstjobs_04.part2.rar
http://filepost.com/files/34be81e9/worstjobs_04.part3.rar
http://filepost.com/files/46e49863/worstjobs_05.part1.rar
http://filepost.com/files/f77ba9a8/worstjobs_05.part2.rar
http://filepost.com/files/d9cbe6da/worstjobs_05.part3.rar
http://filepost.com/files/b91adfd3/worstjobs_06.part1.rar
http://filepost.com/files/7e41mbf7/worstjobs_06.part2.rar
http://filepost.com/files/e4f9f58c/worstjobs_06.part3.rar

http://uploaded.net/file/nluklbou/worstjobs_01.part1.rar
http://uploaded.net/file/0u916g16/worstjobs_01.part2.rar
http://uploaded.net/file/y78huf6e/worstjobs_01.part3.rar
http://uploaded.net/file/egbkxm7r/worstjobs_02.part1.rar
http://uploaded.net/file/3g20v8p2/worstjobs_02.part2.rar
http://uploaded.net/file/wwur6hu8/worstjobs_02.part3.rar
http://uploaded.net/file/p628eksn/worstjobs_03.part1.rar
http://uploaded.net/file/xz5br7s5/worstjobs_03.part2.rar
http://uploaded.net/file/2yhhbpz6/worstjobs_03.part3.rar
http://uploaded.net/file/gsk1hpqc/worstjobs_04.part1.rar
http://uploaded.net/file/nvs41b7w/worstjobs_04.part2.rar
http://uploaded.net/file/w7zwd23z/worstjobs_04.part3.rar
http://uploaded.net/file/cqf54ug2/worstjobs_05.part1.rar
http://uploaded.net/file/w7mlgnga/worstjobs_05.part2.rar
http://uploaded.net/file/j6jguw0b/worstjobs_05.part3.rar
http://uploaded.net/file/5r14o2ty/worstjobs_06.part1.rar
http://uploaded.net/file/71z2xm7l/worstjobs_06.part2.rar
http://uploaded.net/file/r5ouhbaf/worstjobs_06.part3.rar

http://rapidgator.net/file/71938727/worstjobs_01.part1.rar
http://rapidgator.net/file/71938792/worstjobs_01.part2.rar
http://rapidgator.net/file/71938783/worstjobs_01.part3.rar
http://rapidgator.net/file/71938878/worstjobs_02.part1.rar
http://rapidgator.net/file/71938895/worstjobs_02.part2.rar
http://rapidgator.net/file/71938887/worstjobs_02.part3.rar
http://rapidgator.net/file/71939017/worstjobs_03.part1.rar
http://rapidgator.net/file/71939040/worstjobs_03.part2.rar
http://rapidgator.net/file/71939056/worstjobs_03.part3.rar
http://rapidgator.net/file/71939146/worstjobs_04.part1.rar
http://rapidgator.net/file/71939157/worstjobs_04.part2.rar
http://rapidgator.net/file/71939230/worstjobs_04.part3.rar
http://rapidgator.net/file/71939320/worstjobs_05.part1.rar
http://rapidgator.net/file/71939343/worstjobs_05.part2.rar
http://rapidgator.net/file/71939352/worstjobs_05.part3.rar
http://rapidgator.net/file/71939402/worstjobs_06.part1.rar
http://rapidgator.net/file/71939433/worstjobs_06.part2.rar
http://rapidgator.net/file/71939443/worstjobs_06.part3.rar