Wrong Turn 5: Bloodlines (2012)

Posted By: NaVi7
Wrong Turn 5: Bloodlines (2012)

Wrong Turn 5: Bloodlines (2012)
BDRip 720p | MKV / AVC, 5654 Kbps | 1280x720 | 1h 27mn | 4.35 GB
Francais: DTS, 1510 Kbps (6 ch)
Genre: Horreur | Thriller

Dans une petite ville de l'ouest de la Virginie se déroule le célèbre Mountain Man Festival, durant la période d'Halloween. Cette réunion de gens déguisés et masqués est propice à nombre de méfaits mais surtout à une véritable nuit de folie. Mais une famille consanguine et violente s'invite à la fête…

imdb

General
Unique ID : 186403024968926059261495257688912632740 (0x8C3BEAB034ED91F6AD2D2E3011BF1BA4)
Complete name : sde-wrong.turn.5..720p.mkv
Format : Matroska
Format version : Version 2
File size : 4.35 GiB
Duration : 1h 27mn
Overall bit rate mode : Variable
Overall bit rate : 7 158 Kbps
Encoded date : UTC 2013-01-26 22:34:07
Writing application : mkvmerge v4.4.0 ('Die Wiederkehr') built on Oct 31 2010 21:52:48
Writing library : libebml v1.0.0 + libmatroska v1.0.0

Video
ID : 1
Format : AVC
Format/Info : Advanced Video Codec
Format profile : High@L4.1
Format settings, CABAC : Yes
Format settings, ReFrames : 3 frames
Codec ID : V_MPEG4/ISO/AVC
Duration : 1h 27mn
Bit rate mode : Variable
Bit rate : 5 654 Kbps
Maximum bit rate : 40.0 Mbps
Width : 1 280 pixels
Height : 720 pixels
Display aspect ratio : 16:9
Frame rate mode : Constant
Frame rate : 25.000 fps
Color space : YUV
Chroma subsampling : 4:2:0
Bit depth : 8 bits
Scan type : Progressive
Bits/(Pixel*Frame) : 0.245
Stream size : 3.35 GiB (77%)
Writing library : x264 core 118 r2085 8a62835
Encoding settings : cabac=1 / ref=3 / deblock=1:-1:-1 / analyse=0x3:0x113 / me=hex / subme=7 / psy=1 / psy_rd=1.00:0.15 / mixed_ref=1 / me_range=16 / chroma_me=1 / trellis=1 / 8x8dct=1 / cqm=0 / deadzone=21,11 / fast_pskip=1 / chroma_qp_offset=-3 / threads=12 / sliced_threads=0 / slices=4 / nr=0 / decimate=1 / interlaced=0 / bluray_compat=1 / constrained_intra=0 / bframes=3 / b_pyramid=1 / b_adapt=1 / b_bias=0 / direct=1 / weightb=1 / open_gop=1 / weightp=1 / keyint=60 / keyint_min=6 / scenecut=40 / intra_refresh=0 / rc_lookahead=40 / rc=2pass / mbtree=1 / bitrate=5654 / ratetol=1.0 / qcomp=0.60 / qpmin=0 / qpmax=69 / qpstep=4 / cplxblur=20.0 / qblur=0.5 / vbv_maxrate=40000 / vbv_bufsize=30000 / nal_hrd=vbr / ip_ratio=1.40 / aq=1:1.00
Default : Yes
Forced : No
Color primaries : BT.709
Transfer characteristics : BT.709
Matrix coefficients : BT.709

Audio
ID : 2
Format : DTS
Format/Info : Digital Theater Systems
Mode : 16
Format settings, Endianness : Big
Muxing mode : Header stripping
Codec ID : A_DTS
Duration : 1h 27mn
Bit rate mode : Constant
Bit rate : 1 510 Kbps
Channel(s) : 6 channels
Channel positions : Front: L C R, Side: L R, LFE
Sampling rate : 48.0 KHz
Bit depth : 24 bits
Compression mode : Lossy
Stream size : 940 MiB (21%)
Default : Yes
Forced : No


Les captures d'ecran:

Wrong Turn 5: Bloodlines (2012)

Wrong Turn 5: Bloodlines (2012)

Wrong Turn 5: Bloodlines (2012)


Bienvenue sur mon blog!

Abonnez-vous a ma newsletter!

Pas plus de miroirs!

Si vous voulez le telecharger, mais j'ai decouvert que les liens sont morts, il suffit de laisser un commentaire ou me PM!
Download Links:
Uploaded | Rapidgator
Liens vers RapidGator et Uploaded sont dans le fichier html. Telechargez le fichier et l'ouvrir dans votre navigateur.