Tags
Language
Tags

Yesterday (2019)

Posted By: Tavaz
1080p (FullHD) / BDRip IMDb
Yesterday (2019)

Yesterday (2019)
BDRip | MKV | 1920x808 | English | H265 @ 1850 kbps | AAC @ 245 kbps | 1 h 56 min | 1.70 GiB
Subtitles: English
Genre: Comedy, Fantasy, Music, Romance

Jack Malik is a struggling singer-songwriter in an English seaside town whose dreams of fame are rapidly fading, despite the fierce devotion and support of his childhood best friend, Ellie. After a freak bus accident during a mysterious global blackout, Jack wakes up to discover that he's the only person on Earth who can remember The Beatles.

ccf13f4d7ab4a9bd118c6230aecbfdd1.mkv (1.7 GB)



General
Unique ID : 285377976841798022258516948146695801195 (0xD6B1CC9243D63BF6234BEA1995A1896B)
Complete name : ./ccf13f4d7ab4a9bd118c6230aecbfdd1.mkv
Format : Matroska
Format version : Version 4 / Version 2
File size : 1.70 GiB
Duration : 1 h 56 min
Overall bit rate : 2 098 kb/s
Movie name : PSArips.com | Yesterday.2019.1080p.10bit.BluRay.8CH.x265.HEVC-PSA
Encoded date : UTC 2019-09-19 07:05:55
Writing application : mkvmerge v37.0.0 ('Leave It') 64-bit
Writing library : libebml v1.3.9 + libmatroska v1.5.2

Video
ID : 1
Format : HEVC
Format/Info : High Efficiency Video Coding
Format profile : Main 10@L4@Main
Codec ID : V_MPEGH/ISO/HEVC
Duration : 1 h 56 min
Bit rate : 1 851 kb/s
Width : 1 920 pixels
Height : 808 pixels
Display aspect ratio : 2.40:1
Frame rate mode : Constant
Frame rate : 23.976 (24000/1001) FPS
Color space : YUV
Chroma subsampling : 4:2:0
Bit depth : 10 bits
Bits/(Pixel*Frame) : 0.050
Stream size : 1.50 GiB (88%)
Default : Yes
Forced : No

Audio
ID : 2
Format : AAC
Format/Info : Advanced Audio Codec
Format profile : HE-AAC / LC
Format settings : Explicit
Codec ID : A_AAC-2
Duration : 1 h 56 min
Bit rate : 245 kb/s
Channel(s) : 8 channels
Channel positions : Front: L C R, Side: L R, Back: L R, LFE
Sampling rate : 48.0 kHz / 24.0 kHz
Frame rate : 23.438 FPS (1024 SPF)
Compression mode : Lossy
Delay relative to video : 31 ms
Stream size : 204 MiB (12%)
Language : English
Default : Yes
Forced : No

Text #1
ID : 3
Format : UTF-8
Codec ID : S_TEXT/UTF8
Codec ID/Info : UTF-8 Plain Text
Duration : 1 h 55 min
Bit rate : 78 b/s
Count of elements : 1949
Stream size : 66.5 KiB (0%)
Language : English
Default : Yes
Forced : No

Text #2
ID : 4
Format : UTF-8
Codec ID : S_TEXT/UTF8
Codec ID/Info : UTF-8 Plain Text
Duration : 1 h 54 min
Bit rate : 86 b/s
Count of elements : 2119
Stream size : 73.0 KiB (0%)
Title : SDH
Language : English
Default : No
Forced : No





Yesterday (2019)


Yesterday (2019)


Yesterday (2019)


Yesterday (2019)


Yesterday (2019)