Tags
Language
Tags

Ieri oggi domani / Yesterday, Today and Tomorrow (1963)

Posted By: Tavaz
1080p (FullHD) / BDRip IMDb
Ieri oggi domani / Yesterday, Today and Tomorrow (1963)

Ieri oggi domani / Yesterday, Today and Tomorrow (1963)
BDRip | MKV | 1920x1080 | Italian | H264 @ 5760 kbps | AC-3 @ 192 kbps | 1 h 58 min | 4.92 GiB
Subtitles: English
Genre: Comedy, Drama, Romance

Stories about three very different women and the men they attract. Adelina sells black-market cigarettes in Naples, is married to the unemployed Carmine, and faces a jail sentence. She can avoid it as long as she's pregnant. Several years and seven children later, Carmine is exhausted, so jail looks inescapable as does her contempt for Carmine. In Milan, Anna drives a Rolls, is bored, and picks up a writer. She talks dreamily of running off with him until he dents her car; that gets her emotional attention. Mara, a Roman call girl, turns the head of a naive seminarian, prompting a run-in with his granny and a vow of abstinence. Mara's fizzy lover from Bologna grows impatient.

f738275a46a54bf8978182be410c5c0a.mkv (4.9 GB)



General
Complete name : ./f738275a46a54bf8978182be410c5c0a.mkv
Format : Matroska
Format version : Version 4 / Version 2
File size : 4.92 GiB
Duration : 1 h 58 min
Overall bit rate : 5 952 kb/s
Encoded date : UTC 2018-04-20 01:08:48 / UTC 2018-04-19T17:55:34Z
Writing application : mkvmerge v22.0.0 ('At The End Of The World') 64-bit
Writing library : libebml v1.3.5 + libmatroska v1.4.8 / Lavf57.7.2

Video
ID : 1
Format : AVC
Format/Info : Advanced Video Codec
Format profile : High@L4
Format settings : CABAC / 4 Ref Frames
Format settings, CABAC : Yes
Format settings, RefFrames : 4 frames
Codec ID : V_MPEG4/ISO/AVC
Duration : 1 h 58 min
Bit rate : 5 760 kb/s
Width : 1 920 pixels
Height : 1 080 pixels
Display aspect ratio : 16:9
Frame rate mode : Constant
Frame rate : 23.976 (24000/1001) FPS
Color space : YUV
Chroma subsampling : 4:2:0
Bit depth : 8 bits
Scan type : Progressive
Bits/(Pixel*Frame) : 0.116
Stream size : 4.67 GiB (95%)
Writing library : x264 core 155 r2893 b00bcaf
Encoding settings : cabac=1 / ref=4 / deblock=1:-3:-3 / analyse=0x3:0x133 / me=umh / subme=9 / psy=1 / psy_rd=1.10:0.25 / mixed_ref=1 / me_range=32 / chroma_me=1 / trellis=2 / 8x8dct=1 / cqm=0 / deadzone=6,6 / fast_pskip=1 / chroma_qp_offset=-4 / threads=18 / lookahead_threads=2 / sliced_threads=0 / nr=0 / decimate=1 / interlaced=0 / bluray_compat=0 / constrained_intra=0 / bframes=6 / b_pyramid=2 / b_adapt=2 / b_bias=0 / direct=3 / weightb=1 / open_gop=0 / weightp=2 / keyint=240 / keyint_min=24 / scenecut=40 / intra_refresh=0 / rc_lookahead=40 / rc=2pass / mbtree=1 / bitrate=5760 / ratetol=1.0 / qcomp=0.60 / qpmin=0 / qpmax=69 / qpstep=4 / cplxblur=20.0 / qblur=0.5 / vbv_maxrate=20000 / vbv_bufsize=25000 / nal_hrd=none / filler=0 / ip_ratio=1.40 / aq=1:1.00
Default : Yes
Forced : No
Color range : Limited
Color primaries : BT.709
Transfer characteristics : BT.709
Matrix coefficients : BT.709
Statistics Tags Issue : mkvmerge v22.0.0 ('At The End Of The World') 64-bit 2018-04-20 01:08:48 / mkvmerge v22.0.0 ('At The End Of The World') 64-bit 2018-04-20 01:08:48 / UTC 2018-04-19T17:55:34Z
FromStats_BitRate : 5757967
FromStats_Duration : 01:58:23.138000000
FromStats_FrameCount : 170305
FromStats_StreamSize : 5112454889

Audio
ID : 2
Format : AC-3
Format/Info : Audio Coding 3
Format settings, Endianness : Big
Codec ID : A_AC3
Duration : 1 h 58 min
Bit rate mode : Constant
Bit rate : 192 kb/s
Channel(s) : 2 channels
Channel positions : Front: L R
Sampling rate : 48.0 kHz
Frame rate : 31.250 FPS (1536 SPF)
Bit depth : 16 bits
Compression mode : Lossy
Stream size : 163 MiB (3%)
Title : Stereo
Language : Italian
Service kind : Complete Main
Default : Yes
Forced : No
Statistics Tags Issue : mkvmerge v22.0.0 ('At The End Of The World') 64-bit 2018-04-20 01:08:48 / mkvmerge v22.0.0 ('At The End Of The World') 64-bit 2018-04-20 01:08:48 / UTC 2018-04-19T17:55:34Z
FromStats_BitRate : 192000
FromStats_Duration : 01:58:23.136000000
FromStats_FrameCount : 221973
FromStats_StreamSize : 170475264

Text
ID : 3
Format : UTF-8
Codec ID : S_TEXT/UTF8
Codec ID/Info : UTF-8 Plain Text
Language : English
Default : Yes
Forced : No
Statistics Tags Issue : mkvmerge v22.0.0 ('At The End Of The World') 64-bit 2018-04-20 01:08:48 / mkvmerge v22.0.0 ('At The End Of The World') 64-bit 2018-04-20 01:08:48 / UTC 2018-04-19T17:55:34Z
FromStats_BitRate : 59
FromStats_Duration : 01:56:16.803000000
FromStats_FrameCount : 1653
FromStats_StreamSize : 51546

Menu
00:00:00.000 : :Adelina
00:10:53.444 : :"Ungrateful Heart"
00:20:05.079 : :Full House
00:30:02.050 : :Examination
00:39:49.971 : :Jail Visits
00:52:22.598 : :Anna
01:02:16.816 : :Accident
01:12:10.201 : :Mara
01:18:46.513 : :Seminary
01:30:41.227 : :Apologies
01:41:00.846 : :Shopping
01:48:34.174 : :Vow





Ieri oggi domani / Yesterday, Today and Tomorrow (1963)


Ieri oggi domani / Yesterday, Today and Tomorrow (1963)


Ieri oggi domani / Yesterday, Today and Tomorrow (1963)


Ieri oggi domani / Yesterday, Today and Tomorrow (1963)


Ieri oggi domani / Yesterday, Today and Tomorrow (1963)