Tags
Language
Tags

Yesterday, Today, and Tomorrow / Ieri oggi domani (1963)

Posted By: RSU75
1080p (FullHD) / BDRip IMDb
Yesterday, Today, and Tomorrow / Ieri oggi domani (1963)

Yesterday, Today, and Tomorrow / Ieri oggi domani (1963)
BDRip 1080p | MKV | AVC 1920x816, ~ 3.8 Mbps | 1hr 58mn | 3.85 GB
Italian (Italiano): AC3, 2 ch, 448 kbps; English: AC3, 2 ch, 448 kbps
BDRip 720p | MKV | AVC 1280x544, ~ 2.5 Mbps | 1hr 58mn | 2.80 GB
Italian (Italiano): AC3, 2 ch, 448 kbps; English: AC3, 2 ch, 448 kbps
Subtitles: English
Genre: Comedy, Romance



Director: Vittorio De Sica
Writer: Eduardo De Filippo (story), Eduardo De Filippo (screenplay)
Stars: Sophia Loren, Marcello Mastroianni, Aldo Giuffrè

Film Distributor: Cult Films

Three different stories of Italian social mores are presented. In "Adelina", unemployed Carmine Sbaratti and his wife Adelina Sbaratti survive through Adelina selling black market cigarettes on the street. They are unable to pay for the furniture they bought (which is under Adelina's name), but are able to avoid the bailiff when he comes for the money or to repossess. They come up with a longer term solution to avoid Adelina being prosecuted for non-payment, but that solution has a profound effect on the family, especially Carmine. In "Anna", Anna Molteni, the spoiled wife of a successful businessman, and an artist named Renzo are on the cusp of an affair. Anna is feeling neglected in the marriage, as her husband seems more concerned about success and money than her. But a car accident shows both Anna and Renzo if an affair with each other is really what they want. In "Mara", Mara is a prostitute who works out of her apartment.

Extras:
- None




General
Unique ID : 221043550580395001882470043270904843259 (0xA64B707677434B2EB8F790026F808BFB)
Complete name : F:\YesterdayTodayAndTomorrow.63.1p\YesterdayTodayAndTomorrow.63.1p.mkv
Format : Matroska
Format version : Version 4 / Version 2
File size : 3.85 GiB
Duration : 1 h 58 min
Overall bit rate : 4 662 kb/s
Movie name : Release RSU75
Encoded date : UTC 2019-05-06 13:00:54
Writing application : mkvmerge v6.6.0 ('The Edge Of The In Between') built on Dec 1 2013 17:55:00
Writing library : libebml v1.3.0 + libmatroska v1.4.1

Video
ID : 1
Format : AVC
Format/Info : Advanced Video Codec
Format profile : High@L4.1
Format settings : CABAC / 4 Ref Frames
Format settings, CABAC : Yes
Format settings, ReFrames : 4 frames
Codec ID : V_MPEG4/ISO/AVC
Duration : 1 h 58 min
Bit rate : 3 800 kb/s
Width : 1 920 pixels
Height : 816 pixels
Display aspect ratio : 2.35:1
Frame rate mode : Constant
Frame rate : 23.976 (23976/1000) FPS
Color space : YUV
Chroma subsampling : 4:2:0
Bit depth : 8 bits
Scan type : Progressive
Bits/(Pixel*Frame) : 0.101
Stream size : 3.04 GiB (79%)
Writing library : x264 core 148 r2643 5c65704
Encoding settings : cabac=1 / ref=4 / deblock=1:0:0 / analyse=0x3:0x113 / me=umh / subme=8 / psy=1 / psy_rd=1.00:0.00 / mixed_ref=1 / me_range=24 / chroma_me=1 / trellis=1 / 8x8dct=1 / cqm=0 / deadzone=21,11 / fast_pskip=1 / chroma_qp_offset=-2 / threads=3 / lookahead_threads=1 / sliced_threads=0 / nr=0 / decimate=1 / interlaced=0 / bluray_compat=0 / constrained_intra=0 / bframes=3 / b_pyramid=0 / b_adapt=2 / b_bias=0 / direct=3 / weightb=1 / open_gop=0 / weightp=2 / keyint=250 / keyint_min=25 / scenecut=40 / intra_refresh=0 / rc_lookahead=40 / rc=abr / mbtree=1 / bitrate=3800 / ratetol=1.0 / qcomp=0.60 / qpmin=10 / qpmax=51 / qpstep=4 / ip_ratio=1.41 / aq=1:1.00
Language : English
Default : Yes
Forced : No

Audio #1
ID : 2
Format : AC-3
Format/Info : Audio Coding 3
Commercial name : Dolby Digital
Codec ID : A_AC3
Duration : 1 h 58 min
Bit rate mode : Constant
Bit rate : 448 kb/s
Channel(s) : 2 channels
Channel layout : L R
Sampling rate : 48.0 kHz
Frame rate : 31.250 FPS (1536 SPF)
Bit depth : 16 bits
Compression mode : Lossy
Stream size : 379 MiB (10%)
Language : Italian
Service kind : Complete Main
Default : Yes
Forced : No

Audio #2
ID : 3
Format : AC-3
Format/Info : Audio Coding 3
Commercial name : Dolby Digital
Codec ID : A_AC3
Duration : 1 h 58 min
Bit rate mode : Constant
Bit rate : 448 kb/s
Channel(s) : 2 channels
Channel layout : L R
Sampling rate : 48.0 kHz
Frame rate : 31.250 FPS (1536 SPF)
Bit depth : 16 bits
Compression mode : Lossy
Stream size : 379 MiB (10%)
Language : English
Service kind : Complete Main
Default : No
Forced : No

Text
ID : 4
Format : PGS
Muxing mode : zlib
Codec ID : S_HDMV/PGS
Codec ID/Info : Picture based subtitle format used on BDs/HD-DVDs
Language : English
Default : Yes
Forced : No

Menu
00:00:00.000 : en:Chapter 00
00:17:01.687 : en:Chapter 01
00:36:28.936 : en:Chapter 02
00:52:22.389 : en:Chapter 03
01:04:22.733 : en:Chapter 04
01:12:10.492 : en:Chapter 05
01:30:41.519 : en:Chapter 06
01:43:12.769 : en:Chapter 07





General
Unique ID : 202912363080884365967088990593224198403 (0x98A77FE6BA7449A6A72BF5360256C903)
Complete name : F:\YesterdayTodayAndTomorrow.63.7p\YesterdayTodayAndTomorrow.63.7p.mkv
Format : Matroska
Format version : Version 4 / Version 2
File size : 2.80 GiB
Duration : 1 h 58 min
Overall bit rate : 3 383 kb/s
Movie name : Release RSU75
Encoded date : UTC 2019-05-06 12:55:34
Writing application : mkvmerge v6.6.0 ('The Edge Of The In Between') built on Dec 1 2013 17:55:00
Writing library : libebml v1.3.0 + libmatroska v1.4.1

Video
ID : 1
Format : AVC
Format/Info : Advanced Video Codec
Format profile : High@L4.1
Format settings : CABAC / 4 Ref Frames
Format settings, CABAC : Yes
Format settings, ReFrames : 4 frames
Codec ID : V_MPEG4/ISO/AVC
Duration : 1 h 58 min
Bit rate : 2 500 kb/s
Width : 1 280 pixels
Height : 544 pixels
Display aspect ratio : 2.35:1
Frame rate mode : Constant
Frame rate : 23.976 (23976/1000) FPS
Color space : YUV
Chroma subsampling : 4:2:0
Bit depth : 8 bits
Scan type : Progressive
Bits/(Pixel*Frame) : 0.150
Stream size : 2.00 GiB (72%)
Writing library : x264 core 148 r2643 5c65704
Encoding settings : cabac=1 / ref=4 / deblock=1:0:0 / analyse=0x3:0x113 / me=umh / subme=8 / psy=1 / psy_rd=1.00:0.00 / mixed_ref=1 / me_range=24 / chroma_me=1 / trellis=1 / 8x8dct=1 / cqm=0 / deadzone=21,11 / fast_pskip=1 / chroma_qp_offset=-2 / threads=3 / lookahead_threads=1 / sliced_threads=0 / nr=0 / decimate=1 / interlaced=0 / bluray_compat=0 / constrained_intra=0 / bframes=3 / b_pyramid=0 / b_adapt=2 / b_bias=0 / direct=3 / weightb=1 / open_gop=0 / weightp=2 / keyint=250 / keyint_min=25 / scenecut=40 / intra_refresh=0 / rc_lookahead=40 / rc=abr / mbtree=1 / bitrate=2500 / ratetol=1.0 / qcomp=0.60 / qpmin=10 / qpmax=51 / qpstep=4 / ip_ratio=1.41 / aq=1:1.00
Language : English
Default : Yes
Forced : No

Audio #1
ID : 2
Format : AC-3
Format/Info : Audio Coding 3
Commercial name : Dolby Digital
Codec ID : A_AC3
Duration : 1 h 58 min
Bit rate mode : Constant
Bit rate : 448 kb/s
Channel(s) : 2 channels
Channel layout : L R
Sampling rate : 48.0 kHz
Frame rate : 31.250 FPS (1536 SPF)
Bit depth : 16 bits
Compression mode : Lossy
Stream size : 379 MiB (13%)
Language : Italian
Service kind : Complete Main
Default : Yes
Forced : No

Audio #2
ID : 3
Format : AC-3
Format/Info : Audio Coding 3
Commercial name : Dolby Digital
Codec ID : A_AC3
Duration : 1 h 58 min
Bit rate mode : Constant
Bit rate : 448 kb/s
Channel(s) : 2 channels
Channel layout : L R
Sampling rate : 48.0 kHz
Frame rate : 31.250 FPS (1536 SPF)
Bit depth : 16 bits
Compression mode : Lossy
Stream size : 379 MiB (13%)
Language : English
Service kind : Complete Main
Default : No
Forced : No

Text
ID : 4
Format : PGS
Muxing mode : zlib
Codec ID : S_HDMV/PGS
Codec ID/Info : Picture based subtitle format used on BDs/HD-DVDs
Language : English
Default : Yes
Forced : No

Menu
00:00:00.000 : en:Chapter 00
00:17:01.687 : en:Chapter 01
00:36:28.936 : en:Chapter 02
00:52:22.389 : en:Chapter 03
01:04:22.733 : en:Chapter 04
01:12:10.492 : en:Chapter 05
01:30:41.519 : en:Chapter 06
01:43:12.769 : en:Chapter 07




Screenshots 1080p (click to enlarge to original size):

Yesterday, Today, and Tomorrow / Ieri oggi domani (1963)

Yesterday, Today, and Tomorrow / Ieri oggi domani (1963)

Yesterday, Today, and Tomorrow / Ieri oggi domani (1963)


Yesterday, Today, and Tomorrow / Ieri oggi domani (1963)



Screenshots 720p (click to enlarge to original size):

Yesterday, Today, and Tomorrow / Ieri oggi domani (1963)



–––––––––––––––––––––––––––––––––––––––-
OR OR
–––––––––––––––––––––––––––––––––––––––-

–––––––––––––––––––––––––––––––––––––––-