Tags
Language
Tags

Young Sheldon S01E01-03

Posted By: Tavaz
720p (HD) / WEBRip IMDb
Young Sheldon S01E01-03

Young Sheldon S01E01-03
MKV | 1280x720 | English | H264 @ 2554 kbps | AC-3 @ 384 kb/s | 18 min 23 s | 387 MiB
Subtitles: German
Genre: Comedy





btvg-youngsheldon-s01e02-720p-sample.mkv (18.7 MB)
btvg-youngsheldon-s01e02-720p.mkv (386.7 MB)



General
Unique ID : 34173800486350018185550813352233001508 (0x19B5A272FBEBF68E99E3E3FD81E7E224)
Complete name : ./btvg-youngsheldon-s01e02-720p.mkv
Format : Matroska
Format version : Version 4 / Version 2
File size : 387 MiB
Duration : 18 min 23 s
Overall bit rate : 2 940 kb/s
Encoded date : UTC 2017-11-14 13:28:35
Writing application : mkvmerge v9.3.1 ('Mask Machine') 64bit
Writing library : libebml v1.3.4 + libmatroska v1.4.5

Video
ID : 1
Format : AVC
Format/Info : Advanced Video Codec
Format profile : High@L4.1
Format settings : CABAC / 8 Ref Frames
Format settings, CABAC : Yes
Format settings, RefFrames : 8 frames
Codec ID : V_MPEG4/ISO/AVC
Duration : 18 min 23 s
Bit rate : 2 554 kb/s
Width : 1 280 pixels
Height : 720 pixels
Display aspect ratio : 16:9
Frame rate mode : Constant
Frame rate : 23.976 (24000/1001) FPS
Color space : YUV
Chroma subsampling : 4:2:0
Bit depth : 8 bits
Scan type : Progressive
Bits/(Pixel*Frame) : 0.116
Stream size : 336 MiB (87%)
Writing library : x264 core 152 r2851 ba24899
Encoding settings : cabac=1 / ref=8 / deblock=1:-2:-2 / analyse=0x3:0x113 / me=umh / subme=9 / psy=1 / psy_rd=1.00:0.00 / mixed_ref=1 / me_range=24 / chroma_me=1 / trellis=2 / 8x8dct=1 / cqm=0 / deadzone=21,11 / fast_pskip=0 / chroma_qp_offset=-2 / threads=18 / lookahead_threads=1 / sliced_threads=0 / nr=0 / decimate=1 / interlaced=0 / bluray_compat=0 / constrained_intra=0 / bframes=5 / b_pyramid=2 / b_adapt=1 / b_bias=0 / direct=3 / weightb=1 / open_gop=0 / weightp=2 / keyint=250 / keyint_min=23 / scenecut=40 / intra_refresh=0 / rc_lookahead=50 / rc=crf / mbtree=1 / crf=18.0 / qcomp=0.60 / qpmin=0 / qpmax=69 / qpstep=4 / ip_ratio=1.40 / aq=1:1.00
Language : English
Default : No
Forced : No

Audio
ID : 2
Format : AC-3
Format/Info : Audio Coding 3
Format settings, Endianness : Big
Codec ID : A_AC3
Duration : 18 min 23 s
Bit rate mode : Constant
Bit rate : 384 kb/s
Channel(s) : 6 channels
Channel positions : Front: L C R, Side: L R, LFE
Sampling rate : 48.0 kHz
Frame rate : 31.250 FPS (1536 SPF)
Bit depth : 16 bits
Compression mode : Lossy
Stream size : 50.5 MiB (13%)
Language : English
Service kind : Complete Main
Default : Yes
Forced : No

Text
ID : 3
Format : UTF-8
Codec ID : S_TEXT/UTF8
Codec ID/Info : UTF-8 Plain Text
Duration : 18 min 2 s
Bit rate : 116 b/s
Count of elements : 320
Stream size : 15.4 KiB (0%)
Title : forced
Language : German
Default : Yes
Forced : Yes





Young Sheldon S01E01-03


Young Sheldon S01E01-03


Young Sheldon S01E01-03


Young Sheldon S01E01-03

All episodes