Tags
Language
Tags

BBC - Young Musician 2020 (2021)

Posted By: Tutorial
1080p (FullHD) / HDTV
BBC - Young Musician 2020 (2021)

BBC - Young Musician 2020 (2021)
HDTV | 1920 x 1080 | .MKV/HEVC @ 1909 Kbps | 1 h 59 min | 1.70 GB
Audio: English AAC 130 Kbps, 2 channels | Subs: English
Genre: Documentary

The long-awaited grand final of BBC Young Musician 2020, delayed for a full year, will see three exceptional musicians compete for one of music's most coveted titles. The finalists have had to wait for their moment in the spotlight, but it's certain that the brilliance of the music-making will be even more special as the twenty-second edition of the contest reaches its much anticipated conclusion.

The grand final takes place at the Bridgewater Hall, Manchester, where each finalist will perform a full concerto with the BBC Philharmonic Orchestra and celebrated British conductor Mark Wigglesworth. Presenters Anna Lapwood, Josie d'Arby and Jess Gillam – herself a finalist in 2016 – are on hand to guide you through proceedings. Joining Anna with expert analysis is the 1980 winner of the title, oboist and conductor Nicholas Daniel.

A judging panel featuring some of the UK's leading musical figures is tasked with making what is always a difficult decision. They are clarinettist and composer Mark Simpson, winner of BBC Young Musician in 2006, British-Iranian experimental composer, turntablist and artist Shiva Feshareki, principal conductor of the BBC National Orchestra of Wales, Ryan Bancroft, award-winning composer and performer Errollyn Wallen, MBE, and returning to chair the jury, the chief executive of performance venue Saffron Hall, Angela Dixon.

As well as the performances by the three finalists, we will also see a return to the competition for a very special performance by the 2018 winner, pianist Lauren Zhang.

General
Unique ID : 176765403501904455150502194394523264049 (0x84FBC7437E086E337F429D0E30B86431)
Complete name : BBC.Young.Musician.2020.mkv
Format : Matroska
Format version : Version 4
File size : 1.70 GiB
Duration : 1 h 59 min
Overall bit rate : 2 041 kb/s
Movie name : Young Musician 2020 []
Encoded date : UTC 2021-05-03 09:25:17
Writing application : mkvmerge v56.1.0 ('My Friend') 64-bit
Writing library : libebml v1.4.2 + libmatroska v1.6.4

Video
ID : 1
Format : HEVC
Format/Info : High Efficiency Video Coding
Format profile : Main@L4@Main
Codec ID : V_MPEGH/ISO/HEVC
Duration : 1 h 59 min
Bit rate : 1 909 kb/s
Width : 1 920 pixels
Height : 1 080 pixels
Display aspect ratio : 16:9
Frame rate mode : Constant
Frame rate : 25.000 FPS
Color space : YUV
Chroma subsampling : 4:2:0
Bit depth : 8 bits
Bits/(Pixel*Frame) : 0.037
Stream size : 1.59 GiB (94%)
Writing library : x265 3.5+9-bf91444e0:[Windows][MSVC 1928][64 bit] 8bit
Encoding settings : cpuid=1111039 / frame-threads=3 / numa-pools=12 / wpp / no-pmode / no-pme / no-psnr / no-ssim / log-level=2 / input-csp=1 / input-res=1920x1080 / interlace=0 / total-frames=179225 / level-idc=0 / high-tier=1 / uhd-bd=0 / ref=3 / no-allow-non-conformance / no-repeat-headers / annexb / no-aud / no-eob / no-eos / no-hrd / info / hash=0 / no-temporal-layers / no-open-gop / min-keyint=25 / keyint=250 / gop-lookahead=12 / bframes=6 / b-adapt=2 / b-pyramid / bframe-bias=0 / rc-lookahead=20 / lookahead-slices=6 / scenecut=40 / hist-scenecut=0 / radl=0 / no-splice / no-intra-refresh / ctu=64 / min-cu-size=8 / no-rect / no-amp / max-tu-size=32 / tu-inter-depth=1 / tu-intra-depth=1 / limit-tu=0 / rdoq-level=0 / dynamic-rd=0.00 / no-ssim-rd / signhide / no-tskip / nr-intra=0 / nr-inter=0 / no-constrained-intra / strong-intra-smoothing / max-merge=3 / limit-refs=1 / no-limit-modes / me=2 / subme=2 / merange=48 / temporal-mvp / no-frame-dup / hme / Level / merange / L0,L1,L2=16,32,48 / weightp / weightb / no-analyze-src-pics / deblock=0:0 / sao / no-sao-non-deblock / rd=3 / selective-sao=4 / early-skip / rskip / no-fast-intra / no-tskip-fast / no-cu-lossless / b-intra / no-splitrd-skip / rdpenalty=0 / psy-rd=2.00 / psy-rdoq=0.00 / no-rd-refine / no-lossless / cbqpoffs=0 / crqpoffs=0 / rc=crf / crf=23.0 / qcomp=0.60 / qpstep=4 / stats-write=0 / stats-read=0 / ipratio=1.40 / pbratio=1.30 / aq-mode=4 / aq-strength=1.00 / cutree / zone-count=0 / no-strict-cbr / qg-size=32 / no-rc-grain / qpmax=69 / qpmin=0 / no-const-vbv / sar=1 / overscan=0 / videoformat=5 / range=0 / colorprim=1 / transfer=1 / colormatrix=1 / chromaloc=0 / display-window=0 / cll=0,0 / min-luma=0 / max-luma=255 / log2-max-poc-lsb=8 / vui-timing-info / vui-hrd-info / slices=1 / no-opt-qp-pps / no-opt-ref-list-length-pps / no-multi-pass-opt-rps / scenecut-bias=0.05 / hist-threshold=0.03 / no-opt-cu-delta-qp / no-aq-motion / no-hdr10 / no-hdr10-opt / no-dhdr10-opt / no-idr-recovery-sei / analysis-reuse-level=0 / analysis-save-reuse-level=0 / analysis-load-reuse-level=0 / scale-factor=0 / refine-intra=0 / refine-inter=0 / refine-mv=1 / refine-ctu-distortion=0 / no-limit-sao / ctu-info=0 / no-lowpass-dct / refine-analysis-type=0 / copy-pic=1 / max-ausize-factor=1.0 / no-dynamic-refine / no-single-sei / no-hevc-aq / no-svt / no-field / qp-adaptation-range=1.00 / scenecut-aware-qp=0conformance-window-offsets / right=0 / bottom=0 / decoder-max-rate=0 / no-vbv-live-multi-pass
Language : English
Default : Yes
Forced : No
Color range : Limited
Color primaries : BT.709
Transfer characteristics : BT.709
Matrix coefficients : BT.709

Audio
ID : 2
Format : AAC LC
Format/Info : Advanced Audio Codec Low Complexity
Codec ID : A_AAC-2
Duration : 1 h 59 min
Bit rate : 130 kb/s
Channel(s) : 2 channels
Channel layout : L R
Sampling rate : 48.0 kHz
Frame rate : 46.875 FPS (1024 SPF)
Compression mode : Lossy
Stream size : 111 MiB (6%)
Language : English
Default : Yes
Forced : No

Text
ID : 3
Format : UTF-8
Codec ID : S_TEXT/UTF8
Codec ID/Info : UTF-8 Plain Text
Duration : 1 h 58 min
Bit rate : 49 b/s
Count of elements : 896
Stream size : 43.5 KiB (0%)
Language : English
Default : No
Forced : No
Screenshots

BBC - Young Musician 2020 (2021)

BBC - Young Musician 2020 (2021)

BBC - Young Musician 2020 (2021)

Welcome to my blog - daily update!

BBC - Young Musician 2020 (2021)