Tags
Language
Tags

Yves (2019)

Posted By: JohnSmith
1080p (FullHD) / WEB-DL IMDb
Yves (2019)

Yves (2019)
WEB-DL 1080p | MKV / AVC@5230 kb/s | 1912x1032 | 1h 46mn | Français (VFi): AC3, 384 kb/s (6 ch) | 4.18 GB
Genre: Comedy

Jérem s'installe dans la maison de sa mémé pour y composer son premier disque. Il y fait la rencontre de So, mystérieuse enquêtrice pour le compte de la start-up Digital Cool. Elle le persuade de prendre à l'essai Yves, un réfrigérateur intelligent, censé lui simplifier la vie…


General
Unique ID : 156369324785621348991191011194788791290 (0x75A3A2F1964199B19978B0F1001E43FA)
Complete name : C:\Yves.2019.FRENCH.1080p.WEB.mkv
Format : Matroska
Format version : Version 4
File size : 4.18 GiB
Duration : 1 h 46 min
Overall bit rate : 5 614 kb/s
Encoded date : UTC 2019-10-04 11:14:46
Writing application : mkvmerge v37.0.0 ('Leave It') 64-bit
Writing library : libebml v1.3.9 + libmatroska v1.5.2

Video
ID : 2
Format : AVC
Format/Info : Advanced Video Codec
Format profile : High@L4
Format settings : CABAC / 4 Ref Frames
Format settings, CABAC : Yes
Format settings, Reference : 4 frames
Codec ID : V_MPEG4/ISO/AVC
Duration : 1 h 46 min
Bit rate : 5 228 kb/s
Width : 1 912 pixels
Height : 1 032 pixels
Display aspect ratio : 1.85:1
Frame rate mode : Constant
Frame rate : 25.000 FPS
Color space : YUV
Chroma subsampling : 4:2:0
Bit depth : 8 bits
Scan type : Progressive
Bits/(Pixel*Frame) : 0.106
Stream size : 3.90 GiB (93%)
Language : English
Default : Yes
Forced : No
Color range : Limited
Color primaries : BT.709
Transfer characteristics : BT.709
Matrix coefficients : BT.709

Audio
ID : 1
Format : AC-3
Format/Info : Audio Coding 3
Commercial name : Dolby Digital
Codec ID : A_AC3
Duration : 1 h 46 min
Bit rate mode : Constant
Bit rate : 384 kb/s
Channel(s) : 6 channels
Channel layout : L R C LFE Ls Rs
Sampling rate : 48.0 kHz
Frame rate : 31.250 FPS (1536 SPF)
Bit depth : 16 bits
Compression mode : Lossy
Delay relative to video : -40 ms
Stream size : 293 MiB (7%)
Language : French
Service kind : Complete Main
Default : Yes
Forced : No

Menu
00:00:00.000 : en:Chapitre 01
00:10:00.000 : en:Chapitre 02
00:20:00.000 : en:Chapitre 03
00:30:00.000 : en:Chapitre 04
00:40:00.000 : en:Chapitre 05
00:50:00.000 : en:Chapitre 06
01:00:00.000 : en:Chapitre 07
01:10:00.000 : en:Chapitre 08
01:20:00.000 : en:Chapitre 09
01:30:00.000 : en:Chapitre 10




Screenshots

Yves (2019)

Yves (2019)

Yves (2019)