Tags
Language
Tags

Z Nation S04E08

Posted By: Tavaz
1080p (FullHD) / WEBRip IMDb
Z Nation S04E08

Z Nation S04E08
H264 | MKV | 1920x1080 | English | H264 @ 11892 kbps | E-AC-3 @ 640 kbps | 42 min 39 s | 3.73 GiB
Subtitles: English
Genre: Action, Comedy, Drama, Horror, Sci-Fi

Three years after the zombie virus has gutted the United States of America a team of everyday heroes must transport the only known survivor of the plague from New York to California, where the last functioning viral lab waits for his blood.



Z.Nation.S04E08.Crisis.of.Faith.1080p.AMZN.WEB-DL.DDP5.1.H.264-KiNGS.mkv (3.7 GB)



General
Unique ID : 125656265019513761235192767951857060661 (0x5E88842F850EFA1F24CC8A2CD9F10B35)
Complete name : ./Z.Nation.S04E08.Crisis.of.Faith.1080p.AMZN.WEB-DL.DDP5.1.H.264-KiNGS.mkv
Format : Matroska
Format version : Version 4 / Version 2
File size : 3.73 GiB
Duration : 42 min 39 s
Overall bit rate mode : Variable
Overall bit rate : 12.5 Mb/s
Encoded date : UTC 2017-11-19 13:23:17
Writing application : mkvmerge v17.0.0 ('Be Ur Friend') 64-bit
Writing library : libebml v1.3.5 + libmatroska v1.4.8

Video
ID : 1
Format : AVC
Format/Info : Advanced Video Codec
Format profile : High@L4
Format settings : CABAC / 4 Ref Frames
Format settings, CABAC : Yes
Format settings, RefFrames : 4 frames
Codec ID : V_MPEG4/ISO/AVC
Duration : 42 min 39 s
Bit rate mode : Variable
Bit rate : 11.9 Mb/s
Maximum bit rate : 15.0 Mb/s
Width : 1 920 pixels
Height : 1 080 pixels
Display aspect ratio : 16:9
Frame rate mode : Constant
Frame rate : 23.976 (24000/1001) FPS
Color space : YUV
Chroma subsampling : 4:2:0
Bit depth : 8 bits
Scan type : Progressive
Bits/(Pixel*Frame) : 0.239
Stream size : 3.54 GiB (95%)
Default : Yes
Forced : No
Color range : Limited
Color primaries : BT.709
Transfer characteristics : BT.709
Matrix coefficients : BT.709

Audio
ID : 2
Format : E-AC-3
Format/Info : Enhanced Audio Coding 3
Format settings, Endianness : Big
Codec ID : A_EAC3
Duration : 42 min 39 s
Bit rate mode : Constant
Bit rate : 640 kb/s
Channel(s) : 6 channels
Channel positions : Front: L C R, Side: L R, LFE
Sampling rate : 48.0 kHz
Frame rate : 187.500 FPS (256 SPF)
Compression mode : Lossy
Stream size : 195 MiB (5%)
Language : English
Service kind : Complete Main
Default : Yes
Forced : No

Text
ID : 3
Format : UTF-8
Codec ID : S_TEXT/UTF8
Codec ID/Info : UTF-8 Plain Text
Duration : 42 min 16 s
Bit rate : 50 b/s
Count of elements : 693
Stream size : 15.5 KiB (0%)
Language : English
Default : No
Forced : No





Z Nation S04E08


Z Nation S04E08


Z Nation S04E08


Z Nation S04E08


Z Nation S04E08

All episodes