Tags
Language
Tags

Z Nation S04E10

Posted By: Tavaz
1080p (FullHD) / WEB-DL IMDb
Z Nation S04E10

Z Nation S04E10
WEB-DL | MOV | 1920x1080 | English | H265 @ 2440 kbps | E-AC-3 @ 640 kbps | 42 min 39 s | 941 MiB
Subtitles: English
Genre: Drama

Three years after the zombie virus has gutted the country, a team of everyday heroes must transport the only known survivor of the plague from New York to California, where the last functioning viral lab waits for his blood.

91438e6efaaa4823aaa2d9afedd3c87f.mp4 (941.3 MB)



General
Complete name : ./91438e6efaaa4823aaa2d9afedd3c87f.mp4
Format : MPEG-4
Format profile : Base Media
Codec ID : isom (isom/iso2/mp41)
File size : 941 MiB
Duration : 42 min 39 s
Overall bit rate mode : Variable
Overall bit rate : 3 085 kb/s
Collection : Z Nation
Season : 4
Part : 10
Track name : Frenemies
Performer : Kellita Smith, Keith Allan, Nat Zang, Russell Hodgkinson, DJ Qualls, Sydney Viengluang, Anastasia Baranova, Gracie Gillam, Michael Welch, Emilio Rivera, Pisay Pao, Kathryn Brown, Aaron Trainor, Ramona Young, Joseph Gatt , Lisa Coronado, Matt Cedeño, Micha
Actor : Kellita Smith / Keith Allan / Nat Zang / Russell Hodgkinson / DJ Qualls / Sydney Viengluang / Anastasia Baranova / Gracie Gillam / Michael Welch / Emilio Rivera / Pisay Pao / Kathryn Brown / Aaron Trainor / Ramona Young / Joseph Gatt / Lisa Coronado / Matt Cedeño / Michael Welch / Tom Everett Scott / Harold Perrineau
Genre : Comedy, Drama, Horror, Science-Fiction
ContentType : TV Show
Description : Doc and our heroes are reunited with Sketchy and Skeezy when they take refuge in a working barber shop full of mysterious characters, one of whom Doc knows but can't remember from where.
Recorded date : 12/1/2017 12:00:00 AM
Tagged date : UTC 2017-12-03 09:29:57
Writing application : Lavf57.82.101
Cover : Yes
ContentRating : mpaa|Not Rated|0|
TVNetworkName : Syfy
LongDescription : Doc and our heroes are reunited with Sketchy and Skeezy when they take refuge in a working barber shop full of mysterious characters, one of whom Doc knows but can't remember from where.
HDVideo : Yes

Video
ID : 1
Format : HEVC
Format/Info : High Efficiency Video Coding
Format profile : Main 10@L4@Main
Codec ID : hvc1
Codec ID/Info : High Efficiency Video Coding
Duration : 42 min 39 s
Bit rate : 2 441 kb/s
Width : 1 920 pixels
Height : 1 080 pixels
Display aspect ratio : 16:9
Frame rate mode : Constant
Frame rate : 23.976 (24000/1001) FPS
Standard : Component
Color space : YUV
Chroma subsampling : 4:2:0
Bit depth : 10 bits
Scan type : Progressive
Bits/(Pixel*Frame) : 0.049
Stream size : 745 MiB (79%)
Language : English
Color range : Limited

Audio
ID : 2
Format : E-AC-3
Format/Info : Enhanced Audio Coding 3
Format settings, Endianness : Big
Codec ID : ec-3
Duration : 42 min 39 s
Bit rate mode : Constant
Bit rate : 640 kb/s
Channel(s) : 6 channels
Channel positions : Front: L C R, Side: L R, LFE
Sampling rate : 48.0 kHz
Frame rate : 187.500 FPS (256 SPF)
Bit depth : 16 bits
Compression mode : Lossy
Stream size : 195 MiB (21%)
Language : English
Service kind : Complete Main
Default : Yes
Alternate group : 1

Text
ID : 3
Format : Timed Text
Muxing mode : sbtl
Codec ID : tx3g
Duration : 42 min 0 s
Bit rate mode : Variable
Bit rate : 75 b/s
Stream size : 23.0 KiB (0%)
Language : English
Default : Yes
Forced : No
Alternate group : 3





Z Nation S04E10


Z Nation S04E10


Z Nation S04E10


Z Nation S04E10


Z Nation S04E10

All episodes