Tags
Language
Tags

Z Nation S04E10

Posted By: Tavaz
720p (HD) / WEB-DL IMDb
Z Nation S04E10

Z Nation S04E10
WEB-DL | MKV | 1280x720 | English | H264 @ 4170 kbps | E-AC-3 @ 640 kbps | 42 min 39 s | 1.43 GiB
Subtitles: English
Genre: Drama

Three years after the zombie virus has gutted the country, a team of everyday heroes must transport the only known survivor of the plague from New York to California, where the last functioning viral lab waits for his blood.

Z.Nation.S04E10.Frenemies.720p.AMZN.WEB-DL.DDP5.1.H.264-KiNGS.mkv (1.4 GB)



General
Unique ID : 93394233956982380972655422045213118474 (0x4643133F115176AFA80C9618E213500A)
Complete name : ./Z.Nation.S04E10.Frenemies.720p.AMZN.WEB-DL.DDP5.1.H.264-KiNGS.mkv
Format : Matroska
Format version : Version 4 / Version 2
File size : 1.43 GiB
Duration : 42 min 39 s
Overall bit rate mode : Variable
Overall bit rate : 4 812 kb/s
Encoded date : UTC 2017-12-02 13:55:03
Writing application : mkvmerge v17.0.0 ('Be Ur Friend') 64-bit
Writing library : libebml v1.3.5 + libmatroska v1.4.8

Video
ID : 1
Format : AVC
Format/Info : Advanced Video Codec
Format profile : High@L3.1
Format settings : CABAC / 5 Ref Frames
Format settings, CABAC : Yes
Format settings, RefFrames : 5 frames
Codec ID : V_MPEG4/ISO/AVC
Duration : 42 min 39 s
Bit rate mode : Variable
Bit rate : 4 170 kb/s
Maximum bit rate : 4 500 kb/s
Width : 1 280 pixels
Height : 720 pixels
Display aspect ratio : 16:9
Frame rate mode : Constant
Frame rate : 23.976 (24000/1001) FPS
Color space : YUV
Chroma subsampling : 4:2:0
Bit depth : 8 bits
Scan type : Progressive
Bits/(Pixel*Frame) : 0.189
Stream size : 1.24 GiB (87%)
Default : Yes
Forced : No
Color range : Limited
Color primaries : BT.709
Transfer characteristics : BT.709
Matrix coefficients : BT.709

Audio
ID : 2
Format : E-AC-3
Format/Info : Enhanced Audio Coding 3
Format settings, Endianness : Big
Codec ID : A_EAC3
Duration : 42 min 39 s
Bit rate mode : Constant
Bit rate : 640 kb/s
Channel(s) : 6 channels
Channel positions : Front: L C R, Side: L R, LFE
Sampling rate : 48.0 kHz
Frame rate : 187.500 FPS (256 SPF)
Compression mode : Lossy
Stream size : 195 MiB (13%)
Language : English
Service kind : Complete Main
Default : Yes
Forced : No

Text
ID : 3
Format : UTF-8
Codec ID : S_TEXT/UTF8
Codec ID/Info : UTF-8 Plain Text
Duration : 41 min 59 s
Bit rate : 64 b/s
Count of elements : 840
Stream size : 19.9 KiB (0%)
Language : English
Default : No
Forced : No





Z Nation S04E10


Z Nation S04E10


Z Nation S04E10


Z Nation S04E10


Z Nation S04E10

All episodes