ZDF - The North Pole Conspiracy (2009)

Posted By: Polik88
ZDF - The North Pole Conspiracy (2009)

ZDF - The North Pole Conspiracy (2009)
HDTV | English | MKV (H264) 29.970 fps 2565 Kbps | 1280x720 | AC3 192 Kbps 48.0 khz | 45mn 59s | 0.98 GB
Genre: Documentary

Two Arctic explorers fought harsh, bitter elements in separate quests to be the first to reach the North Pole. Little did they know that when they returned home, a more vicious battle would await them. Join our in-depth investigation into one of the great historical controversies of the 20th Century: Who was the first man to reach the final goal in the great Age of Exploration? Dr. Frederick Cook or Robert Peary? This thrilling detective story is brought to life with arresting re-enactments and insights from researchers, polar explorers and photogrammetric experts.
General
Complete name : The.North.Pole.Conspiracy.mkv
Format : Matroska
Format version : Version 2
File size : 1 011 MiB
Duration : 45mn 59s
Overall bit rate : 3 074 Kbps
Encoded date : UTC 2012-12-22 20:10:37
Writing application : mkvmerge v5.8.0 ('No Sleep / Pillow') built on Sep 2 2012 15:37:04
Writing library : libebml v1.2.3 + libmatroska v1.3.0

Video
ID : 1
Format : AVC
Format/Info : Advanced Video Codec
Format profile : High@L4.1
Format settings, CABAC : Yes
Format settings, ReFrames : 8 frames
Muxing mode : Header stripping
Codec ID : V_MPEG4/ISO/AVC
Duration : 45mn 59s
Bit rate : 2 565 Kbps
Width : 1 280 pixels
Height : 720 pixels
Display aspect ratio : 16:9
Frame rate : 29.970 fps
Color space : YUV
Chroma subsampling : 4:2:0
Bit depth : 8 bits
Scan type : Progressive
Bits/(Pixel*Frame) : 0.093
Stream size : 844 MiB (83%)
Writing library : x264 core 125 r2200 999b753
Encoding settings : cabac=1 / ref=8 / deblock=1:-1:-1 / analyse=0x3:0x113 / me=esa / subme=8 / psy=1 / psy_rd=1.00:0.00 / mixed_ref=0 / me_range=30 / chroma_me=1 / trellis=2 / 8x8dct=1 / cqm=0 / deadzone=21,11 / fast_pskip=0 / chroma_qp_offset=-2 / threads=6 / lookahead_threads=1 / sliced_threads=0 / nr=0 / decimate=1 / interlaced=0 / bluray_compat=0 / constrained_intra=0 / bframes=5 / b_pyramid=0 / b_adapt=2 / b_bias=0 / direct=1 / weightb=1 / open_gop=0 / weightp=2 / keyint=300 / keyint_min=29 / scenecut=40 / intra_refresh=0 / rc_lookahead=40 / rc=crf / mbtree=1 / crf=20.0 / qcomp=0.60 / qpmin=10 / qpmax=51 / qpstep=4 / ip_ratio=1.40 / aq=1:1.05
Language : English
Default : Yes
Forced : No

Audio
ID : 2
Format : AC-3
Format/Info : Audio Coding 3
Mode extension : CM (complete main)
Format settings, Endianness : Big
Muxing mode : Header stripping
Codec ID : A_AC3
Duration : 45mn 59s
Bit rate mode : Constant
Bit rate : 448 Kbps
Channel(s) : 6 channels
Channel positions : Front: L C R, Side: L R, LFE
Sampling rate : 48.0 KHz
Bit depth : 16 bits
Compression mode : Lossy
Stream size : 147 MiB (15%)
Default : Yes
Forced : No

Screenshots

ZDF - The North Pole Conspiracy (2009)

ZDF - The North Pole Conspiracy (2009)

ZDF - The North Pole Conspiracy (2009)

no mirrors please, Follow The Rules
Visit Polik88 Blog Here
no password