Tags
Language
Tags

American Harmony (2009)

Posted By: notbanned
SD / DVDRip IMDb
American Harmony (2009)

American Harmony (2009)
DVDRip | 720x406 | .MKV/AVC @ 1752 Kbps | 1 h 26 min | 1.18 GiB
Audio #1: English AAC 120 kbps, 2 channels; Audio #2: English AAC 80 kbps, 2 channels | Subs: None
Genre: Documentary

Every year thousands compete in the world's greatest singing competition - that you've never heard of. AMERICAN HARMONY journeys deep into the ultra-obsessive, zany, and heartfelt world of competitive barbershop singing, where passion is equaled only by raw talent, and the reward is not fame or fortune, but simply victory. The film focuses on four quartets vying to win the International Championships of Barbershop Singing, in what turns out to be the closest and most controversial victory in its 70 year history. Max Q is the heavy favorite - a superstar quartet comprised of former Champions. Looking to upset them is OC Times (The Heart-Throbs), Vocal Spectrum (The Rookies) and Reveille, an aging foursome who that has been together for 30 years. In total, fifty quartets duke it out for the coveted gold medal, while facing the pressures of quartet life - from big egos to brain cancer and everything in between.

General
Unique ID : 322716291217881087215904724272125306169 (0xF2C8E599EA5024AB7F10CDD5520FE539)
Complete name : american.harmony.2011.dvdrip.mkv
Format : Matroska
Format version : Version 4 / Version 2
File size : 1.18 GiB
Duration : 1 h 26 min
Overall bit rate : 1 955 kb/s

Video
ID : 1
Format : AVC
Format/Info : Advanced Video Codec
Format profile : High@L3.1
Format settings, CABAC : Yes
Format settings, ReFrames : 15 frames
Codec ID : V_MPEG4/ISO/AVC
Duration : 1 h 26 min
Bit rate : 1 752 kb/s
Width : 720 pixels
Height : 406 pixels
Display aspect ratio : 16:9
Frame rate mode : Constant
Frame rate : 29.970 (30000/1001) FPS
Color space : YUV
Chroma subsampling : 4:2:0
Bit depth : 8 bits
Scan type : Progressive
Bits/(Pixel*Frame) : 0.200
Stream size : 1.06 GiB (90%)
Writing library : x264 core 155 r2901 7d0ff22
Encoding settings : cabac=1 / ref=15 / deblock=1:0:0 / analyse=0x3:0x133 / me=umh / subme=10 / psy=1 / psy_rd=1.00:0.00 / mixed_ref=1 / me_range=24 / chroma_me=1 / trellis=2 / 8x8dct=1 / cqm=0 / deadzone=21,11 / fast_pskip=1 / chroma_qp_offset=-2 / threads=13 / lookahead_threads=2 / sliced_threads=0 / nr=0 / decimate=1 / interlaced=0 / bluray_compat=0 / constrained_intra=0 / bframes=8 / b_pyramid=2 / b_adapt=2 / b_bias=0 / direct=3 / weightb=1 / open_gop=0 / weightp=2 / keyint=250 / keyint_min=25 / scenecut=40 / intra_refresh=0 / rc_lookahead=60 / rc=crf / mbtree=1 / crf=19.0 / qcomp=0.60 / qpmin=0 / qpmax=69 / qpstep=4 / ip_ratio=1.40 / aq=1:1.00
Default : Yes
Forced : No

Audio #1
ID : 2
Format : AAC
Format/Info : Advanced Audio Codec
Format profile : LC
Codec ID : A_AAC
Duration : 1 h 26 min
Bit rate : 120 kb/s
Channel(s) : 2 channels
Channel positions : Front: L R
Sampling rate : 48.0 kHz
Frame rate : 46.875 FPS (1024 spf)
Compression mode : Lossy
Delay relative to video : 20 ms
Stream size : 74.4 MiB (6%)
Language : English
Default : Yes
Forced : No

Audio #2
ID : 3
Format : AAC
Format/Info : Advanced Audio Codec
Format profile : LC
Codec ID : A_AAC
Duration : 1 h 26 min
Bit rate : 80.1 kb/s
Channel(s) : 1 channel
Channel positions : Front: C
Sampling rate : 48.0 kHz
Frame rate : 46.875 FPS (1024 spf)
Compression mode : Lossy
Delay relative to video : 20 ms
Stream size : 49.4 MiB (4%)
Title : Filmmakers' Commentary
Language : English
Default : No
Forced : No


Screenshots:

American Harmony (2009)

American Harmony (2009)

American Harmony (2009)

American Harmony (2009)