Tags
Language
Tags

(Arte) Architectures : La mosquée royale d'Ispahan (2011)

Posted By: Morocco
(Arte) Architectures : La mosquée royale d'Ispahan (2011)

(Arte) Architectures : La mosquée royale d'Ispahan (2011)
TNT-Rip by Clo2 | French | 26min | 640 x 368 | 25.000 fps | Avi | MPEG-4 XviD @ 895 Kbps | MP3 @ 112 Kbps | 187 MB
Genre : Documentaire

En 1598, le roi Abbas 1er décide de faire d’Ispahan sa capitale et planifie un immense projet urbain, dont une grande place, le Meidan, sera l’élément central. Au Sud, la Mosquée royale oriente les regards et exalte la foi du souverain. C’est un immense bâtiment doté de quatre minarets qui entourent une grande cour et son bassin, une salle de prière protégée par un bulbe, quatre Iwans monumentaux symbolisant les quatre fleuves du paradis, deux cours pour les écoles coraniques, des salles pour les ablutions, une tour pour un observatoire astronomique.

Un bâtiment richement décoré de mosaïques, de textes calligraphiés, une représentation symbolique d’un jardin idéal et de la parole de Dieu. La Mosquée royale d’Ispahan incarne la richesse inouïe d’un art de vivre, la puissance d’un roi et le talent de centaines d’artisans et d’artistes.

Format : AVI
Format/Info : Audio Video Interleave
File size : 187 MiB
Duration : 25mn 45s
Overall bit rate : 1 015 Kbps
Writing application : VirtualDubMod 1.5.10.3 Fr | www.virtualdub-fr.org || (build 2550/release)
Writing library : VirtualDubMod build 2550/release

Video
ID : 0
Format : MPEG-4 Visual
Format profile : Advanced Simple@L5
Format settings, BVOP : 2
Format settings, QPel : No
Format settings, GMC : No warppoints
Format settings, Matrix : Default (MPEG)
Muxing mode : Packed bitstream
Codec ID : XVID
Codec ID/Hint : XviD
Duration : 25mn 45s
Bit rate : 894 Kbps
Width : 640 pixels
Height : 368 pixels
Display aspect ratio : 16:9
Frame rate : 25.000 fps
Color space : YUV
Chroma subsampling : 4:2:0
Bit depth : 8 bits
Scan type : Progressive
Compression mode : Lossy
Bits/(Pixel*Frame) : 0.152
Stream size : 165 MiB (88%)
Writing library : XviD 57

Audio
ID : 1
Format : MPEG Audio
Format version : Version 1
Format profile : Layer 3
Mode : Joint stereo
Mode extension : MS Stereo
Codec ID : 55
Codec ID/Hint : MP3
Duration : 25mn 45s
Bit rate mode : Constant
Bit rate : 112 Kbps
Channel(s) : 2 channels
Sampling rate : 48.0 KHz
Compression mode : Lossy
Stream size : 20.6 MiB (11%)
Alignment : Aligned on interleaves
Interleave, duration : 40 ms (1.00 video frame)
Interleave, preload duration : 504 ms
Writing library : LAME3.98r
Encoding settings : -m j -V 4 -q 3 -lowpass 15.6 -b 112


(Arte) Architectures : La mosquée royale d'Ispahan (2011)

(Arte) Architectures : La mosquée royale d'Ispahan (2011)

(Arte) Architectures : La mosquée royale d'Ispahan (2011)

~ Liens interchangeables ~



No Pass ;)

Un merci ?

D'autres "Architectures" ? >> Listing des documentaires