(Arte) Architectures : L'Auditorium Building de Chicago (2011)

Posted By: Morocco
(Arte) Architectures : L'Auditorium Building de Chicago (2011)

(Arte) Architectures : L'Auditorium Building de Chicago (2011)
TNT-Rip by Clo2 | French | 27min | 640 x 368 | 25.000 fps | Avi | MPEG-4 XviD @ 895 Kbps | MP3 @ 112 Kbps | 195 MB
Genre : Documentaire

En 1871, un gigantesque incendie ravage Chicago. Après la catastrophe, toute la ville est à reconstruire : c’est une occasion unique pour une jeune génération d’architectes américains de rompre avec le vieux continent et d’inventer à Chicago les nouvelles formes d’une architecture spécifiquement américaine.

L’architecte Louis Henry Sullivan est la personnalité la plus marquante de cette École de Chicago et l’auteur de la formule la plus citée de l’histoire de l’architecture moderne: « Form follows function ».

Le Chicago Auditorium Building, construit en association avec l’ingénieur Adler, est sa première œuvre d’envergure. C’est un complexe rassemblant dans un seul bâtiment un hôtel de luxe, des bureaux, et une salle d’opéra. L’idée des commanditaires étant que l’hôtel et les bureaux allaient combler le déficit de l’opéra qu’on voulait populaire. À l’époque de sa construction ce fut le bâtiment de tous les records : le plus haut du monde, grâce à sa tour de dix-sept étages, et abritant en son sein la salle de spectacle la plus grande des États-Unis avec 4 500 places assises.

Si la tour, construite en maçonnerie traditionnelle, fut rapidement dépassée par l’apparition du gratte-ciel à charpente métallique, la salle de spectacle reste aujourd’hui encore extraordinaire tant par ses dimensions vertigineuses et sa perfection acoustique que par le traitement architectural et décoratif qui rompt radicalement avec la tradition de la salle d’opéra européenne. L’Auditorium building de Chicago C’est le premier grand chef d’œuvre de l’histoire de l’architecture américaine.

Format : AVI
Format/Info : Audio Video Interleave
File size : 195 MiB
Duration : 26mn 45s
Overall bit rate : 1 017 Kbps
Writing application : VirtualDubMod 1.5.10.3 Fr | www.virtualdub-fr.org || (build 2550/release)
Writing library : VirtualDubMod build 2550/release

Video
ID : 0
Format : MPEG-4 Visual
Format profile : Advanced Simple@L5
Format settings, BVOP : 2
Format settings, QPel : No
Format settings, GMC : No warppoints
Format settings, Matrix : Default (MPEG)
Muxing mode : Packed bitstream
Codec ID : XVID
Codec ID/Hint : XviD
Duration : 26mn 45s
Bit rate : 895 Kbps
Width : 640 pixels
Height : 368 pixels
Display aspect ratio : 16:9
Frame rate : 25.000 fps
Color space : YUV
Chroma subsampling : 4:2:0
Bit depth : 8 bits
Scan type : Progressive
Compression mode : Lossy
Bits/(Pixel*Frame) : 0.152
Stream size : 171 MiB (88%)
Writing library : XviD 57

Audio
ID : 1
Format : MPEG Audio
Format version : Version 1
Format profile : Layer 3
Mode : Joint stereo
Mode extension : MS Stereo
Codec ID : 55
Codec ID/Hint : MP3
Duration : 26mn 45s
Bit rate mode : Constant
Bit rate : 112 Kbps
Channel(s) : 2 channels
Sampling rate : 48.0 KHz
Compression mode : Lossy
Stream size : 21.4 MiB (11%)
Alignment : Aligned on interleaves
Interleave, duration : 40 ms (1.00 video frame)
Interleave, preload duration : 504 ms
Writing library : LAME3.98r
Encoding settings : -m j -V 4 -q 3 -lowpass 15.6 -b 112


(Arte) Architectures : L'Auditorium Building de Chicago (2011)

(Arte) Architectures : L'Auditorium Building de Chicago (2011)

(Arte) Architectures : L'Auditorium Building de Chicago (2011)

~ Liens interchangeables ~



No Pass ;)

Un merci ?

D'autres "Architectures" ? >> Listing des documentaires