Tags
Language
Tags

Bait (2012)

Posted By: melomaniaco
Bait (2012)

Bait (2012)
DVDrip | XviD | mp3@224 kbps Constant | 680x340 | Audio Tracks: English | Sub: Spanish (hardcoded) | 1h33 | 755 MB
Action, Thriller | USA Sept 9, 2012 | Director Kimble Rendall

A freak tsunami traps shoppers at a coastal Australian supermarket inside the building - along with a 12-foot Great White Shark.

Country: Australia
Language: English
Release Date: Sept 9 (USA)
Also Known As: Shark 3D



General
Format : AVI
Format/Info : Audio Video Interleave
File size : 755 MiB
Duration : 1h 33mn
Overall bit rate : 1 132 Kbps
Writing application : Lavf52.57.1

Video
ID : 0
Format : xvid
Codec ID : xvid
Duration : 1h 33mn
Bit rate : 895 Kbps
Width : 680 pixels
Height : 340 pixels
Display aspect ratio : 2.000
Frame rate : 23.976 fps
Bits/(Pixel*Frame) : 0.161
Stream size : 597 MiB (79%)

Audio
ID : 1
Format : MPEG Audio
Format version : Version 1
Format profile : Layer 3
Mode : Joint stereo
Codec ID : 55
Codec ID/Hint : MP3
Duration : 1h 33mn
Bit rate mode : Constant
Bit rate : 224 Kbps
Channel(s) : 2 channels
Sampling rate : 48.0 KHz
Compression mode : Lossy
Stream size : 149 MiB (20%)
Alignment : Aligned on interleaves
Interleave, duration : 24 ms (0.58 video frame)
Writing library : LAME3.98.2


Bait (2012)


Bait (2012)


My blog in AH

No mirrors please