Basic Instinct (1992)

Posted By: a_l_chemist
Basic Instinct (1992)

Basic Instinct (1992)
DVD5 (VIDEO_TS) | PAL | MPEG2 | 720x576 (widescreen 2.35:1), 25,000 fps, 3446 kbps | Cover | 02:02:58 | 4,33 GB
English, German: AC3, 6ch, 448 kbps | Spanish: AC3, 2ch, 192 kbps | Subs: English, German, Spanish, Portuguese, Dutch, Turkish
Genre: Crime | Mystery | Thriller

Basic Instinct is a 1992 erotic thriller directed by Paul Verhoeven and written by Joe Eszterhas, starring Michael Douglas and Sharon Stone.
Even before its release, Basic Instinct generated heated controversy due to its overt sexuality and graphic depiction of violence. It was also strongly opposed by gay rights activists, who criticized the film's depiction of homosexual relationships and the portrayal of a bisexual woman as a psychopathic serial killer.
Despite initial critical negativity and public protest, Basic Instinct became one of the most financially successful films of the 1990s.

Basic Instinct (1992)

Plot: When a wealthy former rock star, Johnny Boz (Bill Cable), is brutally stabbed to death with an ice pick during sexual intercourse, homicide detective Nick Curran (Michael Douglas) is sent to investigate. The only suspect is Catherine Tramell (Sharon Stone), a crime novelist who was the last person to be seen with Boz on the night he died. Nick and his partner, Gus Moran (George Dzundza), visit her Pacific Heights mansion; but they find only Catherine's lesbian lover, Roxy (Leilani Sarelle), who sends them to Catherine's Stinson Beach house, where they find her sitting in a deckchair by the ocean. When they ask about her relationship with Boz, she shows little remorse at hearing he is dead. Nick and Gus, along with their superiors, discover that Catherine has written a novel about a former rock star who was killed in the same way as Boz. During questioning at police headquarters, Catherine engages in provocative behavior, refusing to extinguish her cigarette and uncrossing her legs under her short skirt, revealing she isn't wearing underwear.
Because he accidentally shot a pair of tourists in an earlier case (while high on cocaine), Nick attends counseling sessions with police psychologist Dr. Beth Garner (Jeanne Tripplehorn), with whom he has had an affair. After the interrogation, Nick goes to a bar with co-workers and is taunted by Lt. Marty Nilsen (Daniel von Bargen), an internal affairs investigator bent on making life difficult for Nick. When Beth Garner arrives, Nick leaves with her and at her apartment they engage in rough sex. Nick learns that Catherine's parents were killed when she was an adolescent, leaving her a fortune, that when she was majoring in psychology, her counselor at college was also murdered with an ice pick, and that Catherine's fiancé, a boxer, was killed in the ring. He also discovers that Catherine makes a habit of befriending murderers, including a woman who stabbed her husband and children for no apparent reason.
–from wikipedia
Wikipedia info in: Deutsch | Español

…..IMDb | Rovi
Basic Instinct (1992)

Basic Instinct (1992)

Basic Instinct (1992)

Basic Instinct (1992)

Basic Instinct (1992)

General
File name : VTS_02_1.VOB
Format : MPEG-PS
File size : 1 024 MiB
Duration : 29mn 53s
Overall bit rate : 4 790 Kbps

Video
ID : 224 (0xE0)
Format : MPEG Video
Format version : Version 2
Format profile : Main@Main
Format settings, BVOP : Yes
Format settings, Matrix : Default
Format settings, GOP : M=3, N=15
Duration : 29mn 53s
Bit rate mode : Variable
Bit rate : 3 446 Kbps
Nominal bit rate : 7 500 Kbps
Width : 720 pixels
Height : 576 pixels
Display aspect ratio : 2.35:1
Frame rate : 25.000 fps
Standard : PAL
Color space : YUV
Chroma subsampling : 4:2:0
Bit depth : 8 bits
Scan type : Interlaced
Scan order : Top Field First
Compression mode : Lossy
Bits/(Pixel*Frame) : 0.332
Stream size : 737 MiB (72%)

Audio #1
ID : 189 (0xBD)-128 (0x80)
Format : AC-3
Format/Info : Audio Coding 3
Mode extension : CM (complete main)
Muxing mode : DVD-Video
Duration : 29mn 53s
Bit rate mode : Constant
Bit rate : 448 Kbps
Channel(s) : 6 channels
Channel positions : Front: L C R, Side: L R, LFE
Sampling rate : 48.0 KHz
Bit depth : 16 bits
Compression mode : Lossy
Stream size : 95.8 MiB (9%)

Audio #2
ID : 189 (0xBD)-130 (0x82)
Format : AC-3
Format/Info : Audio Coding 3
Mode extension : CM (complete main)
Muxing mode : DVD-Video
Duration : 29mn 53s
Bit rate mode : Constant
Bit rate : 448 Kbps
Channel(s) : 6 channels
Channel positions : Front: L C R, Side: L R, LFE
Sampling rate : 48.0 KHz
Bit depth : 16 bits
Compression mode : Lossy
Stream size : 95.8 MiB (9%)

Audio #3
ID : 189 (0xBD)-131 (0x83)
Format : AC-3
Format/Info : Audio Coding 3
Format profile : Dolby Digital
Mode extension : CM (complete main)
Muxing mode : DVD-Video
Duration : 29mn 53s
Bit rate mode : Constant
Bit rate : 192 Kbps
Channel(s) : 2 channels
Channel positions : Front: L R
Sampling rate : 48.0 KHz
Bit depth : 16 bits
Compression mode : Lossy
Stream size : 41.0 MiB (4%)

Audio #4
ID : 189 (0xBD)-132 (0x84)
Format : AC-3
Format/Info : Audio Coding 3
Mode extension : CM (complete main)
Muxing mode : DVD-Video
Duration : 29mn 53s
Bit rate mode : Constant
Bit rate : 80.0 Kbps
Channel(s) : 1 channel
Channel positions : Front: C
Sampling rate : 48.0 KHz
Bit depth : 16 bits
Compression mode : Lossy
Stream size : 17.1 MiB (2%)

Audio #5
ID : 189 (0xBD)-133 (0x85)
Format : AC-3
Format/Info : Audio Coding 3
Mode extension : CM (complete main)
Muxing mode : DVD-Video
Duration : 29mn 53s
Bit rate mode : Constant
Bit rate : 80.0 Kbps
Channel(s) : 1 channel
Channel positions : Front: C
Sampling rate : 48.0 KHz
Bit depth : 16 bits
Compression mode : Lossy
Stream size : 17.1 MiB (2%)

Text #1
ID : 189 (0xBD)-45 (0x2D)
Format : RLE
Format/Info : Run-length encoding
Muxing mode : DVD-Video
Delay relative to video : 3s 480ms

Text #2
ID : 189 (0xBD)-46 (0x2E)
Format : RLE
Format/Info : Run-length encoding
Muxing mode : DVD-Video
Delay relative to video : 3s 480ms

Text #3
ID : 189 (0xBD)-47 (0x2F)
Format : RLE
Format/Info : Run-length encoding
Muxing mode : DVD-Video
Delay relative to video : 1s 520ms

Text #4
ID : 189 (0xBD)-48 (0x30)
Format : RLE
Format/Info : Run-length encoding
Muxing mode : DVD-Video
Delay relative to video : 1s 520ms

Menu

Basic Instinct (1992): BDRip 720p | BDRip 1080p | OST

My blog on AvaxHome | RSS

.: No Mirrors Please :.