BBC - Baby Love with Connie Fisher (2018)

Posted By: notbanned
720p (HD) / WEB-DL
BBC - Baby Love with Connie Fisher (2018)

BBC - Baby Love with Connie Fisher (2018)
WEB-DL | 1280x720 | .MKV/AVC @ 2330 Kbps | 58 min 39 s | 1017 MiB
Audio: English AAC 93.4 kbps, 2 channels | Subs: English
Genre: Documentary

Documentary in which Connie Fisher examines the issue of motherhood, travelling across Wales to meet different women who have each made their own decision about having children.

General
Unique ID : 282581918081169071150727865268809617964 (0xD4974C3B2546EB47FA9FFC380BB5D22C)
Complete name : bb.Love.with.Connie.Fisher.720p.mkv
Format : Matroska
Format version : Version 4 / Version 2
File size : 1 017 MiB
Duration : 58 min 39 s
Overall bit rate mode : Variable
Overall bit rate : 2 425 kb/s

Video
ID : 2
Format : AVC
Format/Info : Advanced Video Codec
Format profile : High@L4.1
Format settings, CABAC : Yes
Format settings, ReFrames : 2 frames
Codec ID : V_MPEG4/ISO/AVC
Duration : 58 min 39 s
Bit rate mode : Variable
Bit rate : 2 330 kb/s
Maximum bit rate : 3 500 kb/s
Width : 1 280 pixels
Height : 720 pixels
Display aspect ratio : 16:9
Frame rate mode : Constant
Frame rate : 25.000 FPS
Color space : YUV
Chroma subsampling : 4:2:0
Bit depth : 8 bits
Scan type : Progressive
Bits/(Pixel*Frame) : 0.101
Stream size : 977 MiB (96%)
Language : English
Default : Yes
Forced : No

Audio
ID : 3
Format : AAC
Format/Info : Advanced Audio Codec
Format profile : LC
Codec ID : A_AAC
Duration : 58 min 38 s
Bit rate : 93.4 kb/s
Channel(s) : 2 channels
Channel positions : Front: L R
Sampling rate : 48.0 kHz
Frame rate : 46.875 FPS (1024 spf)
Compression mode : Lossy
Delay relative to video : -40 ms
Stream size : 39.2 MiB (4%)
Language : English
Default : Yes
Forced : No

Text
ID : 1
Format : UTF-8
Codec ID : S_TEXT/UTF8
Codec ID/Info : UTF-8 Plain Text
Duration : 58 min 33 s
Bit rate : 222 b/s
Count of elements : 1101
Stream size : 95.5 KiB (0%)
Language : English
Default : Yes
Forced : No


Screenshots:

BBC - Baby Love with Connie Fisher (2018)

BBC - Baby Love with Connie Fisher (2018)

BBC - Baby Love with Connie Fisher (2018)

BBC - Baby Love with Connie Fisher (2018)