Tags
Language
Tags

Berlin: Symphony of a Great City / Berlin: Die Sinfonie der Grosstadt (1927)

Posted By: Tutorial
SD / BDRip IMDb
Berlin: Symphony of a Great City / Berlin: Die Sinfonie der Grosstadt (1927)

Berlin: Symphony of a Great City / Berlin: Die Sinfonie der Grosstadt (1927)
BDRip| 720 x 526 | .MKV/AVC @ 2208 Kbps | 1 h 2 min | 1.03 GB
Audio: German (Deutsch) AAC 155 Kbps, 2 channels | Subs: English
Genre: Documentary

This movie shows us one day in Berlin, the rhythm of that time, starting at the earliest morning and ends in the deepest night.

General
Unique ID : 211800347858336499479109531386893893668 (0x9F57436233D320FC95628F08158D0024)
Complete name : \berlin.symphony.of.a.great.city.1927.mkv
Format : Matroska
Format version : Version 4 / Version 2
File size : 1.03 GiB
Duration : 1 h 2 min
Overall bit rate : 2 364 kb/s
Encoded date : UTC 2019-01-13 10:31:50
Writing application : mkvmerge v8.3.0 ('Over the Horizon') 64bit
Writing library : libebml v1.3.1 + libmatroska v1.4.2

Video
ID : 1
Format : AVC
Format/Info : Advanced Video Codec
Format profile : High@L3.1
Format settings, CABAC : Yes
Format settings, ReFrames : 5 frames
Codec ID : V_MPEG4/ISO/AVC
Duration : 1 h 2 min
Bit rate : 2 208 kb/s
Width : 720 pixels
Height : 526 pixels
Display aspect ratio : 4:3
Frame rate mode : Constant
Frame rate : 19.980 (20000/1001) FPS
Color space : YUV
Chroma subsampling : 4:2:0
Bit depth : 8 bits
Scan type : Progressive
Bits/(Pixel*Frame) : 0.292
Stream size : 982 MiB (93%)
Writing library : x264 core 155 r2901 7d0ff22
Encoding settings : cabac=1 / ref=5 / deblock=1:-3:-3 / analyse=0x3:0x113 / me=umh / subme=8 / psy=1 / psy_rd=1.00:0.15 / mixed_ref=1 / me_range=16 / chroma_me=1 / trellis=2 / 8x8dct=1 / cqm=0 / deadzone=21,11 / fast_pskip=1 / chroma_qp_offset=-3 / threads=16 / lookahead_threads=2 / sliced_threads=0 / nr=0 / decimate=1 / interlaced=0 / bluray_compat=0 / constrained_intra=0 / bframes=3 / b_pyramid=2 / b_adapt=1 / b_bias=0 / direct=3 / weightb=1 / open_gop=0 / weightp=2 / keyint=200 / keyint_min=20 / scenecut=40 / intra_refresh=0 / rc_lookahead=50 / rc=crf / mbtree=1 / crf=24.0 / qcomp=0.60 / qpmin=0 / qpmax=69 / qpstep=4 / ip_ratio=1.40 / aq=1:1.00
Language : English
Default : Yes
Forced : No
Color range : Limited
Matrix coefficients : BT.709

Audio
ID : 2
Format : AAC
Format/Info : Advanced Audio Codec
Format profile : LC
Codec ID : A_AAC
Duration : 1 h 2 min
Bit rate : 155 kb/s
Channel(s) : 2 channels
Channel positions : Front: L R
Sampling rate : 48.0 kHz
Frame rate : 46.875 FPS (1024 spf)
Compression mode : Lossy
Delay relative to video : 9 ms
Stream size : 68.8 MiB (7%)
Default : Yes
Forced : No

Text
ID : 3
Format : UTF-8
Codec ID : S_TEXT/UTF8
Codec ID/Info : UTF-8 Plain Text
Duration : 1 h 1 min
Bit rate : 0 b/s
Count of elements : 20
Stream size : 250 Bytes (0%)
Title : English forced
Language : English
Default : Yes
Forced : Yes

Menu
00:00:00.000 : en:00:00:00.000
00:07:55.100 : en:00:07:55.100
00:15:05.196 : en:00:15:05.196
00:23:47.843 : en:00:23:47.843
00:36:07.374 : en:00:36:07.374
00:52:31.357 : en:00:52:31.357
Screenshots

Berlin: Symphony of a Great City / Berlin: Die Sinfonie der Grosstadt (1927)

Berlin: Symphony of a Great City / Berlin: Die Sinfonie der Grosstadt (1927)

Berlin: Symphony of a Great City / Berlin: Die Sinfonie der Grosstadt (1927)

Welcome to my blog - daily update!

Berlin: Symphony of a Great City / Berlin: Die Sinfonie der Grosstadt (1927)