Biography Harley-Davidson (2005)

Posted By: Tutorial
Biography Harley-Davidson (2005)

Biography Harley-Davidson (2005)
PDTV | 640 x 480 | .AVI/XVID @ 1576 Kbps | 44mn 7s | English MP3 128 kbps, 2 channels | 979 MB
Genre: Documentary, Biography

In 1903, the same year Henry Ford incorporated the Ford Motor Company and the Wright brothers first flew, William Harley and his friends Arthur and Walter Davidson launched the Harley-Davidson Motor Company.
From the beginning a unique and characteristic sound endeared the Harley-Davidson to its owners. The Harleys pistons connected to its crankshaft in a way that caused the motor to give two "pops" then a quiet pause as it hummed along the road.During World War I Harley-Davidson manufactured nearly 20,000 motorcycles for the U.S. government. And during World War II virtually all of the Harleys produced went towards the war effort. As nations such as England were forced to give up motorcycle production to favor production of tanks and planes, Harleys motorcycles were also shipped overseas to U.S. allies.Following WWII the Harleys myth continued to grow. Its main U.S. competitor, Indian Motorcycle, ceased production in the 1950s. Veteran owners, new bikers, and even movies such as Easy Rider raised the Harley Davidson to the status of American icon. HARLEY-DAVIDSON traces the history and heritage of these legendary machines and follows the company from its modest beginnings in a Detroit shack to todays phenomenal succes.

General
Complete name : Biography.Harley-Davidson.avi
Format : AVI
Format/Info : Audio Video Interleave
File size : 540 MiB
Duration : 44mn 7s
Overall bit rate : 1 711 Kbps
Writing application : VirtualDubMod 1.5.4.1 (build 2178/release)
Writing library : VirtualDubMod build 2178/release

Video
ID : 0
Format : MPEG-4 Visual
Format profile : Advanced Simple@L5
Format settings, BVOP : 1
Format settings, QPel : No
Format settings, GMC : No warppoints
Format settings, Matrix : Custom
Codec ID : XVID
Codec ID/Hint : XviD
Duration : 44mn 7s
Bit rate : 1 576 Kbps
Width : 640 pixels
Height : 480 pixels
Display aspect ratio : 4:3
Frame rate : 25.000 fps
Color space : YUV
Chroma subsampling : 4:2:0
Bit depth : 8 bits
Scan type : Progressive
Compression mode : Lossy
Bits/(Pixel*Frame) : 0.205
Stream size : 497 MiB (92%)
Writing library : XviD 1.2.1 (UTC 2008-12-04)

Audio
ID : 1
Format : MPEG Audio
Format version : Version 1
Format profile : Layer 3
Mode : Joint stereo
Mode extension : MS Stereo
Codec ID : 55
Codec ID/Hint : MP3
Duration : 44mn 7s
Bit rate mode : Constant
Bit rate : 128 Kbps
Channel(s) : 2 channels
Sampling rate : 48.0 KHz
Compression mode : Lossy
Stream size : 40.4 MiB (7%)
Alignment : Aligned on interleaves
Interleave, duration : 80 ms (2.00 video frames)
Interleave, preload duration : 504 ms
Writing library : LAME3.98r
Encoding settings : -m j -V 4 -q 2 -lowpass 17 -b 128
Screenshots

Biography Harley-Davidson (2005)

Biography Harley-Davidson (2005)

Biography Harley-Davidson (2005)

Biography Harley-Davidson (2005)


Biography Harley-Davidson (2005)