(Arte) Broadway, l'exil et le secret (2013)

Posted By: Morocco
(Arte) Broadway, l'exil et le secret (2013)

(Arte) Broadway, l'exil et le secret (2013)
TNT-Rip by Clo2 | French | 51min | 640 x 368 | 25.000 fps | MP4 | AVC High@L4.0 @ 800 Kbps | MPEG Audio @ 101 Kbps | 331 MB
Genre : Documentaire

L'arrière-grand-mère (d'origine allemande) de la réalisatrice (française) a vécu les deux guerres mondiales côté français. Qui était cette femme de caractère ? Une espionne à la solde des Français ou au contraire une "collabo" ?

Rosa Schäfer est née en 1883 dans une bourgade proche de Baden-Baden. À l'âge de 20 ans, elle quitte sa patrie en direction de la France et épouse quelques années plus tard un Français. Elle traversera deux guerres mondiales avec ses deux appartenances, l'une de naissance et l'autre de coeur. La réalisatrice apprendra plus tard que son arrière-grand-mère avait travaillé à la Kommandantur et sur l'aérodrome d'Angers durant l'occupation allemande. Qu'y faisait-elle ? Des traductions de routine ? De la collaboration avérée ? Qui a raconté qu'au contraire, elle usait de sa connaissance des langues française et allemande pour espionner au profit des Français ? En 2002, un article dans Libération va servir de déclencheur au travail d'investigation de la documentariste. Elle fouille alors dans les photos de famille et n'a de cesse d'interroger ceux et celles qui ont connu Rosa. Sur trois générations, aïeules, tantes, filles, nièces tissent leur propre histoire. Munie d'une valise chargée de souvenirs et d'indices, Judith Josso traverse un jour le Rhin et découvre enfin la vérité dans le village natal de Rosa.

Format : MPEG-4
Format profile : Base Media / Version 2
Codec ID : mp42
File size : 331 MiB
Duration : 50mn 59s
Overall bit rate mode : Variable
Overall bit rate : 907 Kbps
Encoded date : UTC 2013-01-22 10:29:48
Tagged date : UTC 2013-01-22 10:29:51

Video
ID : 1
Format : AVC
Format/Info : Advanced Video Codec
Format profile : High@L4.0
Format settings, CABAC : Yes
Format settings, ReFrames : 4 frames
Codec ID : avc1
Codec ID/Info : Advanced Video Coding
Duration : 50mn 59s
Bit rate mode : Variable
Bit rate : 800 Kbps
Width : 640 pixels
Height : 368 pixels
Display aspect ratio : 1.739
Frame rate mode : Variable
Frame rate : 25.000 fps
Minimum frame rate : 24.563 fps
Maximum frame rate : 100.000 fps
Color space : YUV
Chroma subsampling : 4:2:0
Bit depth : 8 bits
Scan type : Progressive
Bits/(Pixel*Frame) : 0.136
Stream size : 292 MiB (88%)
Encoded date : UTC 2013-01-22 10:29:48
Tagged date : UTC 2013-01-22 10:29:51

Audio
ID : 2
Format : MPEG Audio
Format version : Version 1
Format profile : Layer 3
Mode : Joint stereo
Mode extension : MS Stereo
Codec ID : 69
Duration : 50mn 59s
Bit rate mode : Variable
Bit rate : 101 Kbps
Channel(s) : 2 channels
Sampling rate : 48.0 KHz
Compression mode : Lossy
Stream size : 36.8 MiB (11%)
Encoded date : UTC 2013-01-22 10:29:48
Tagged date : UTC 2013-01-22 10:29:51


(Arte) Broadway, l'exil et le secret (2013)

(Arte) Broadway, l'exil et le secret (2013)

(Arte) Broadway, l'exil et le secret (2013)

No Pass ;)

Un merci ?