(Fr5) Le cachemire, affaire ou arnaque ? (2012)

Posted By: Morocco
(Fr5) Le cachemire, affaire ou arnaque ? (2012)

(Fr5) Le cachemire, affaire ou arnaque ? (2012)
TNT-Rip by Clo2 | French | 52min | 640 x 368 | 25.000 fps | Avi | AVC High@L3.0 @ 800 Kbps | MP3 @ 112 Kbps | 344 MB
Genre : Documentaire

Il y a trente ans, le cachemire était encore un produit de luxe, inaccessible au commun des mortels. Aujourd'hui, c'est une matière grand public qui a envahi la mode. On en trouve à tous les prix. Mais d'où vient cette laine entourée de légendes ? Que valent vraiment tous ces produits ? Comment justifier de tels écarts de prix ? Autant de secrets que les grandes marques gardent jalousement. Ainsi, les fabricants dissimulent soigneusement les conséquences de cet engouement sur l'environnement. Enquête sur cette laine qui a conquis la planète, de la Chine au Népal, en passant par les magasins de prêt-à-porter ou les laboratoires ultraspécialisés du textile.

Format : AVI
Format/Info : Audio Video Interleave
File size : 344 MiB
Duration : 52mn 10s
Overall bit rate : 922 Kbps
Writing application : VirtualDubMod 1.5.10.3 Fr | www.virtualdub-fr.org || (build 2550/release)
Writing library : VirtualDubMod build 2550/release

Video
ID : 0
Format : AVC
Format/Info : Advanced Video Codec
Format profile : High@L3.0
Format settings, CABAC : Yes
Format settings, ReFrames : 4 frames
Codec ID : H264
Duration : 52mn 10s
Bit rate : 800 Kbps
Width : 640 pixels
Height : 368 pixels
Display aspect ratio : 1.739
Frame rate : 25.000 fps
Color space : YUV
Chroma subsampling : 4:2:0
Bit depth : 8 bits
Scan type : Progressive
Bits/(Pixel*Frame) : 0.136
Stream size : 299 MiB (87%)
Writing library : x264 core 125 r2200bm 999b753
Encoding settings : cabac=1 / ref=3 / deblock=1:0:0 / analyse=0x3:0x113 / me=hex / subme=7 / psy=1 / psy_rd=1.00:0.00 / mixed_ref=1 / me_range=16 / chroma_me=1 / trellis=1 / 8x8dct=1 / cqm=0 / deadzone=21,11 / fast_pskip=1 / chroma_qp_offset=-2 / threads=12 / lookahead_threads=2 / sliced_threads=0 / nr=0 / decimate=1 / interlaced=0 / bluray_compat=0 / constrained_intra=0 / bframes=3 / b_pyramid=2 / b_adapt=1 / b_bias=0 / direct=1 / weightb=1 / open_gop=0 / weightp=2 / keyint=250 / keyint_min=25 / scenecut=40 / intra_refresh=0 / rc_lookahead=40 / rc=2pass / mbtree=1 / bitrate=800 / ratetol=1.0 / qcomp=0.60 / qpmin=0 / qpmax=69 / qpstep=4 / cplxblur=20.0 / qblur=0.5 / ip_ratio=1.40 / aq=1:1.00

Audio
ID : 1
Format : MPEG Audio
Format version : Version 1
Format profile : Layer 3
Mode : Joint stereo
Mode extension : MS Stereo
Codec ID : 55
Codec ID/Hint : MP3
Duration : 52mn 10s
Bit rate mode : Constant
Bit rate : 112 Kbps
Channel(s) : 2 channels
Sampling rate : 48.0 KHz
Compression mode : Lossy
Stream size : 41.8 MiB (12%)
Alignment : Aligned on interleaves
Interleave, duration : 40 ms (1.00 video frame)
Interleave, preload duration : 504 ms
Writing library : LAME3.98r
Encoding settings : -m j -V 4 -q 2 -lowpass 15.6 -b 112


(Fr5) Le cachemire, affaire ou arnaque ? (2012)

(Fr5) Le cachemire, affaire ou arnaque ? (2012)

(Fr5) Le cachemire, affaire ou arnaque ? (2012)

(Fr5) Le cachemire, affaire ou arnaque ? (2012)

No Pass ;)

Un merci ?