Carnivàle (HBO) - Season 2

Posted By: Siddharta
Carnivàle (HBO) - Season 2

Carnivàle (HBO) - Season 2
HBO (2004) | English | MPEG-4 AVC 628 Kbps | AAC 80.0 Kbps 48khz | 50min/Episode | 642x352 | 270MB/Episode
Genre: Fantasy

Cast: Nick Stahl, Clancy Brown, Amy Madigan, Michael J. Anderson
Director: Daniel Knauf, Rodrigo García, John Patterson
Producer: HBO
Genre: Fantasy
Year: 2004
Sinópsis: 1934, America. The Dustbowl. A fugitive named Ben Hawkins finds refuge within a traveling carnival comprised of a tarot card reader and her catatonic/telekinetic mother, a blind mentalist, a bearded lady, and conjoined twins, amongst others. The carnival is owned by the mysterious and unseen Management, who has designs on the young Hawkins, for the boy is concealing an untapped gift: he can heal the lame and raise the dead–at a price. Ben also finds himself disturbed by cryptic and prophetic dreams, which he shares with a Methodist preacher in California, Brother Justin Crowe. Brother Justin, convinced by his dreams he is following God's will, has begun to practice his own extraordinary talents, although the preacher's plans increasingly lead to disturbing and tragic consequences. In this "last great age of magic," Ben Hawkins and Justin Crowe are moving toward a great conflict between Good and Evil, although it not yet clear on which sides these men will stand.

Screenshots:
Carnivàle (HBO) - Season 2

Carnivàle (HBO) - Season 2

Carnivàle (HBO) - Season 2


General
Format : MPEG-4
Format profile : Base Media / Version 2
Codec ID : mp42
File size : 83.8 MiB
Duration : 50mn 49s
Overall bit rate : 231 Kbps

Video
ID : 1
Format : AVC
Format/Info : Advanced Video Codec
Format profile : Main@L3.0
Format settings, CABAC : Yes
Format settings, ReFrames : 1 frame
Codec ID : avc1
Codec ID/Info : Advanced Video Coding
Duration : 50mn 49s
Bit rate mode : Variable
Bit rate : 628 Kbps
Width : 640 pixels
Height : 352 pixels
Display aspect ratio : 16:9
Frame rate mode : Variable
Frame rate : 23.976 fps
Minimum frame rate : 11.991 fps
Maximum frame rate : 23.988 fps
Color space : YUV
Chroma subsampling : 4:2:0
Bit depth : 8 bits
Scan type : Progressive
Bits/(Pixel*Frame) : 0.116
Stream size : 226 MiB
Writing library : x264 core 65 r1028M 83baa7f
Encoding settings : cabac=1 / ref=1 / deblock=1:0:0 / analyse=0x1:0x111 / me=hex / subme=6 / psy_rd=1.0:0.0 / mixed_ref=0 / me_range=16 / chroma_me=1 / trellis=0 / 8x8dct=0 / cqm=0 / deadzone=21,11 / chroma_qp_offset=-2 / threads=12 / nr=0 / decimate=1 / mbaff=0 / bframes=0 / keyint=240 / keyint_min=24 / scenecut=40(pre) / rc=abr / bitrate=628 / ratetol=1.0 / qcomp=0.60 / qpmin=10 / qpmax=51 / qpstep=4 / ip_ratio=1.40 / aq=1:1.00
Language : English
Encoded date : UTC 2010-07-20 04:43:35
Tagged date : UTC 2010-07-20 04:56:59
Color primaries : BT.601-6 525, BT.1358 525, BT.1700 NTSC, SMPTE 170M
Transfer characteristics : BT.709-5, BT.1361
Matrix coefficients : BT.601-6 525, BT.1358 525, BT.1700 NTSC, SMPTE 170M

Audio
ID : 2
Format : AAC
Format/Info : Advanced Audio Codec
Format profile : LC
Codec ID : 40
Duration : 50mn 49s
Bit rate mode : Variable
Bit rate : 80.0 Kbps
Maximum bit rate : 96.0 Kbps
Channel(s) : 2 channels
Channel positions : Front: L R
Sampling rate : 48.0 KHz
Compression mode : Lossy
Stream size : 29.1 MiB (35%)
Encoded date : UTC 2010-07-20 04:43:35
Tagged date : UTC 2010-07-20 04:56:56


Download:
Episode 1
Episode 2
Episode 3
Episode 4
Episode 5
Episode 6
Episode 7
Episode 8
Episode 9
Episode 10
Episode 11
Episode 12



mirror
Episode 2
Episode 1
Episode 3
Episode 4
Episode5
Episode6
Episode 8
Episode7
Episode10
Episode 9
Episode11
Episode 12


Carnivàl (HBO) - Season 1