Channel 4 - Confessions of the Paparazzi (2017)

Posted By: notbanned
Channel 4 - Confessions of the Paparazzi (2017)

Channel 4 - Confessions of the Paparazzi (2017)
HDTV | 1920x1080 | .MKV/AVC @ 4715 Kbps | 46mn 47s | 1.70 GiB
Audio: English AC3 384 kbps, 2 channels | Subs: None
Genre: Documentary

One of the paparazzi's most controversial figures, George Bamby, reveals the shocking, seedy and often hilarious secrets of his world, where public interest, morality and privacy collide.


General
Unique ID : 0 (0x0)
Complete name : confessions.of.the.paparazzi.1080p.mkv
Format : Matroska
Format version : Version 4 / Version 2
File size : 1.70 GiB
Duration : 46mn 47s
Overall bit rate : 5 203 Kbps

Video
ID : 1
Format : AVC
Format/Info : Advanced Video Codec
Format profile : High@L4.2
Format settings, CABAC : Yes
Format settings, ReFrames : 4 frames
Codec ID : V_MPEG4/ISO/AVC
Duration : 46mn 47s
Bit rate : 4 715 Kbps
Width : 1 920 pixels
Height : 1 080 pixels
Display aspect ratio : 16:9
Frame rate mode : Constant
Frame rate : 25.000 fps
Color space : YUV
Chroma subsampling : 4:2:0
Bit depth : 8 bits
Scan type : Progressive
Bits/(Pixel*Frame) : 0.091
Stream size : 1.54 GiB (91%)
Writing library : x264 core 148 r2744 b97ae06
Encoding settings : cabac=1 / ref=4 / deblock=1:0:0 / analyse=0x3:0x113 / me=hex / subme=8 / psy=1 / psy_rd=1.00:0.00 / mixed_ref=1 / me_range=16 / chroma_me=1 / trellis=2 / 8x8dct=1 / cqm=0 / deadzone=21,11 / fast_pskip=1 / chroma_qp_offset=-2 / threads=12 / lookahead_threads=2 / sliced_threads=0 / nr=0 / decimate=1 / interlaced=0 / bluray_compat=0 / constrained_intra=0 / bframes=3 / b_pyramid=2 / b_adapt=1 / b_bias=0 / direct=3 / weightb=1 / open_gop=0 / weightp=2 / keyint=250 / keyint_min=25 / scenecut=40 / intra_refresh=0 / rc_lookahead=50 / rc=crf / mbtree=1 / crf=21.0 / qcomp=0.60 / qpmin=0 / qpmax=69 / qpstep=4 / ip_ratio=1.40 / aq=1:1.00
Language : English
Default : Yes
Forced : No
Color range : Limited
Matrix coefficients : BT.709

Audio
ID : 2
Format : AC-3
Format/Info : Audio Coding 3
Mode extension : CM (complete main)
Format settings, Endianness : Big
Codec ID : A_AC3
Duration : 46mn 47s
Bit rate mode : Constant
Bit rate : 384 Kbps
Channel(s) : 2 channels
Channel positions : Front: L R
Sampling rate : 48.0 KHz
Compression mode : Lossy
Delay relative to video : 8ms
Stream size : 129 MiB (7%)
Language : English
Default : Yes
Forced : No


Screenshots:

Channel 4 - Confessions of the Paparazzi (2017)

Channel 4 - Confessions of the Paparazzi (2017)

Channel 4 - Confessions of the Paparazzi (2017)

Channel 4 - Confessions of the Paparazzi (2017)