Tags
Language
Tags

Cultureshock - Freaks and Geeks: The Documentary (2018)

Posted By: notbanned
720p (HD) / WEBRip
Cultureshock - Freaks and Geeks: The Documentary (2018)

Cultureshock - Freaks and Geeks: The Documentary (2018)
WEBRip | 1280x720 | .MKV/AVC @ 2494 Kbps | 1 h 4 min | 1.18 GiB
Audio: English AAC 128 kbps, 2 channels | Subs: None
Genre: Documentary

A profile of the cult classic series and original dramedy, “Freaks and Geeks,” that captured the sad yet humorous difficulties of teenage life, and for the first time, offered protagonists who weren’t stereotypical “jocks and brains.” Cancelled after just one season, the series holds the unique position of still ranking high on Time Magazine’s Greatest 100 Television Shows of All Time. The series, created by Paul Feig and executive produced by Judd Apatow, launched the careers of Seth Rogan, Jason Segel and many other A-list actors.

General
Unique ID : 89707491301877724268892790728446958995 (0x437D08CCB2329E38132A6740E207DD93)
Complete name : cultureshock.freaks.and.geeks.the.documentary.720p.mkv
Format : Matroska
Format version : Version 4 / Version 2
File size : 1.18 GiB
Duration : 1 h 4 min
Overall bit rate : 2 624 kb/s

Video
ID : 1
Format : AVC
Format/Info : Advanced Video Codec
Format profile : Main@L3.1
Format settings, CABAC : Yes
Format settings, ReFrames : 4 frames
Codec ID : V_MPEG4/ISO/AVC
Duration : 1 h 4 min
Bit rate : 2 494 kb/s
Width : 1 280 pixels
Height : 720 pixels
Display aspect ratio : 16:9
Frame rate mode : Constant
Frame rate : 23.976 (24000/1001) FPS
Color space : YUV
Chroma subsampling : 4:2:0
Bit depth : 8 bits
Scan type : Progressive
Bits/(Pixel*Frame) : 0.113
Stream size : 1.12 GiB (95%)
Writing library : Zencoder Video Encoding System
Default : Yes
Forced : No

Audio
ID : 2
Format : AAC
Format/Info : Advanced Audio Codec
Format profile : LC
Codec ID : A_AAC
Duration : 1 h 4 min
Bit rate : 128 kb/s
Channel(s) : 2 channels
Channel positions : Front: L R
Sampling rate : 48.0 kHz
Frame rate : 46.875 FPS (1024 spf)
Compression mode : Lossy
Stream size : 58.9 MiB (5%)
Default : Yes
Forced : No


Screenshots:

Cultureshock - Freaks and Geeks: The Documentary (2018)

Cultureshock - Freaks and Geeks: The Documentary (2018)

Cultureshock - Freaks and Geeks: The Documentary (2018)

Cultureshock - Freaks and Geeks: The Documentary (2018)