(Arte) Dans l'atelier de Mondrian (2011)

Posted By: Morocco
(Arte) Dans l'atelier de Mondrian (2011)

(Arte) Dans l'atelier de Mondrian (2011)
TNT-Rip by Clo2 | French | 50min | 640 x 368 | 25.000 fps | Avi | MPEG-4 XviD @ 893 Kbps | MP3 @ 112 Kbps | 364 MB
Genre : Documentaire

Portrait du peintre néerlandais dont l’œuvre marque un tournant décisif dans l'histoire de la peinture moderne.

D'abord influencé par le cubisme, Pieter Cornelis Mondriaan, dit Piet Mondrian (1872-1944) invente au début des années 1920 un langage pictural à partir de formes géométriques inédites et de couleurs primaires. Avec Kandinsky et Malevitch, il est l'un des pionniers de l'abstraction pure, courant novateur qui a largement influencé l'art du XXe siècle.

Tourné dans la réplique exacte de son atelier du 26, rue du Départ, à Paris, ce documentaire-fiction réincarne un Mondrian passionné de danse et de jazz et retrace sa trajectoire artistique, des premières oeuvres réalistes aux années mystiques, du mouvement de Stijl à son départ pour New York où il meurt en 1944. À partir d'archives d'époque et d'entretiens avec le critique Michel Seuphor qui fut son compagnon de route le plus proche, ce film captivant nous fait revivre le cheminement intellectuel et humain qui a mené Mondrian vers l'abstraction géométrique, ce style si caractéristique qui en fait aujourd'hui encore l'une des grande figures de l'avant-garde artistique internationale.

Format : AVI
Format/Info : Audio Video Interleave
File size : 364 MiB
Duration : 50mn 10s
Overall bit rate : 1 015 Kbps
Writing application : VirtualDubMod 1.5.10.3 Fr | www.virtualdub-fr.org || (build 2550/release)
Writing library : VirtualDubMod build 2550/release

Video
ID : 0
Format : MPEG-4 Visual
Format profile : Advanced Simple@L5
Format settings, BVOP : 2
Format settings, QPel : No
Format settings, GMC : No warppoints
Format settings, Matrix : Default (H.263)
Muxing mode : Packed bitstream
Codec ID : XVID
Codec ID/Hint : XviD
Duration : 50mn 10s
Bit rate : 893 Kbps
Width : 640 pixels
Height : 368 pixels
Display aspect ratio : 1.739
Frame rate : 25.000 fps
Color space : YUV
Chroma subsampling : 4:2:0
Bit depth : 8 bits
Scan type : Progressive
Compression mode : Lossy
Bits/(Pixel*Frame) : 0.152
Stream size : 321 MiB (88%)
Writing library : XviD 57

Audio
ID : 1
Format : MPEG Audio
Format version : Version 1
Format profile : Layer 3
Mode : Joint stereo
Mode extension : MS Stereo
Codec ID : 55
Codec ID/Hint : MP3
Duration : 50mn 10s
Bit rate mode : Constant
Bit rate : 112 Kbps
Channel(s) : 2 channels
Sampling rate : 48.0 KHz
Compression mode : Lossy
Stream size : 40.2 MiB (11%)
Alignment : Aligned on interleaves
Interleave, duration : 40 ms (1.00 video frame)
Interleave, preload duration : 504 ms
Writing library : LAME3.98r
Encoding settings : -m j -V 4 -q 3 -lowpass 15.6 -b 112


(Arte) Dans l'atelier de Mondrian (2011)

(Arte) Dans l'atelier de Mondrian (2011)

(Arte) Dans l'atelier de Mondrian (2011)

(Arte) Dans l'atelier de Mondrian (2011)

No Pass ;)

Un merci ?
~ Lien ~

Filepost