The Dark Half (1993)

Posted By: a_l_chemist
The Dark Half (1993)

The Dark Half (1993)
DVDRip | AVI | XviD | 720x400, 25,000 fps, 2056 kbps | 01:56:07 | 1,90 GB
English: MP3, 2ch, 48kHz, 192 kbps | Subs: English (.srt)
Genre: Horror | Mystery | Thriller

The Dark Half is a 1993 horror film adaptation of the Stephen King novel of the same name. The film was directed by George A. Romero and stars Timothy Hutton as Thad Beaumont and George Stark, Amy Madigan as Liz Beaumont, Michael Rooker as Sheriff Alan Pangborn and Royal Dano in his final film.

The Dark Half (1993)

Plot: The film revolves around the attempts of writer Thad Beaumont to kill off his pseudonym, George Stark. His pseudonym has become a physical entity and is terrorizing Beaumont's family and friends. For some reason, Stark wants to live after he appeared in a set of Beaumont's best selling books. Beaumont writes, but he is not alone in suspecting something strange: Sheriff Alan Pangborn of Castle Rock, Maine is equally suspicious and is asked to investigate the situation.
–from wikipedia
IMDb

Allmovie review
The Dark Half (1993)

The Dark Half (1993)

The Dark Half (1993)

The Dark Half (1993)

The Dark Half (1993)

General
Complete name : F:\Movies\The Dark Half\The Dark Half.avi
Format : AVI
Format/Info : Audio Video Interleave
File size : 1.83 GiB
Duration : 1h 56mn
Overall bit rate : 2 258 Kbps
Movie name : The Dark Half
Writing application : VirtualDubMod 1.5.10.2 (build 2540/release)
Writing library : VirtualDubMod build 2540/release

Video
ID : 0
Format : MPEG-4 Visual
Format profile : Advanced Simple@L5
Format settings, BVOP : 1
Format settings, QPel : No
Format settings, GMC : No warppoints
Format settings, Matrix : Custom
Codec ID : XVID
Codec ID/Hint : XviD
Duration : 1h 56mn
Bit rate : 2 056 Kbps
Width : 720 pixels
Height : 400 pixels
Display aspect ratio : 16:9
Frame rate : 25.000 fps
Color space : YUV
Chroma subsampling : 4:2:0
Bit depth : 8 bits
Scan type : Progressive
Compression mode : Lossy
Bits/(Pixel*Frame) : 0.286
Stream size : 1.67 GiB (91%)
Writing library : XviD 1.1.2 (UTC 2006-11-01)

Audio
ID : 1
Format : MPEG Audio
Format version : Version 1
Format profile : Layer 3
Mode : Joint stereo
Codec ID : 55
Codec ID/Hint : MP3
Duration : 1h 56mn
Bit rate mode : Constant
Bit rate : 192 Kbps
Channel(s) : 2 channels
Sampling rate : 48.0 KHz
Compression mode : Lossy
Stream size : 159 MiB (9%)
Alignment : Aligned on interleaves
Interleave, duration : 40 ms (1.00 video frame)
Interleave, preload duration : 504 ms
Writing library : LAME3.97
Encoding settings : -m j -V 4 -q 2 -lowpass 18.6 -b 192

Download:

Fileserve
List of links

Filesonic
List of links

Bitshare
List of links

Interchangeable links

My blog on AvaxHome

.: No Mirrors Please :.