BBC - David Bowie and the story of Ziggy Stardust (2012)

Posted By: Tutorial
BBC - David Bowie and the story of Ziggy Stardust (2012)

BBC - David Bowie and the story of Ziggy Stardust (2012)
HDTV | 1280 x 720 | .MP4/AVC @ 3019 Kbps | 59mn 39s | 1.33 GB
Audio: English AAC 165 Kbps, 2 channels | Subs: English
Genre: Documentary, Arts, Music

The Rise and Fall of Ziggy Stardust and the Spiders from Mars is arguably the most important album in the mind-blowing career of David Bowie. Released in 1972, it's the record that set the mercurial musician on course to becoming one of the best-known pop stars on the planet. In just over a year, Bowie's messianic Martian invaded the minds of the nation's youth with a killer combination of extraterrestrial rock 'n' roll and outrageous sexuality, all delivered in high-heeled boots, multi-coloured dresses and extravagant make-up. In Bowie's own words, Ziggy was 'a cross between Nijinsky and Woolworths', but this unlikely culture clash worked - Ziggy turned Bowie into stardust. This documentary tells the story of how Bowie arrived at one of the most iconic creations in the history of pop music. The songs, the hairstyles, the fashion and the theatrical stage presentation that merged together to turn David Bowie into the biggest craze since the Beatles. Ziggy's instant success gave the impression that he was the perfectly-planned pop star. But, as the film reveals, it had been a momentous struggle for David Bowie to hit on just the right formula that would take him to the top. Narrated by fan Jarvis Cocker, it reveals Bowie's mission to the stars through the musicians and colleagues who helped him in his unwavering quest for fame - a musical voyage that led Bowie to doubt his true identity, eventually forcing the sudden demise of his alien alter ego, Ziggy.
also You can look my other last: Music-posts

General
Complete name : BBC.David.Bowie.and.the.Story.of.Ziggy.Stardust.mp4
Format : MPEG-4
Format profile : Base Media
Codec ID : isom
File size : 1.33 GiB
Duration : 59mn 39s
Overall bit rate mode : Variable
Overall bit rate : 3 187 Kbps
Encoded date : UTC 2016-01-12 00:56:39
Tagged date : UTC 2016-01-12 00:56:39
Writing application : My MP4Box GUI 0.6.0.6

Video
ID : 1
Format : AVC
Format/Info : Advanced Video Codec
Format profile : High@L4.1
Format settings, CABAC : No
Format settings, ReFrames : 1 frame
Format settings, GOP : M=1, N=12
Codec ID : avc1
Codec ID/Info : Advanced Video Coding
Duration : 59mn 39s
Bit rate : 3 019 Kbps
Maximum bit rate : 14.4 Mbps
Width : 1 280 pixels
Height : 720 pixels
Display aspect ratio : 16:9
Frame rate mode : Constant
Frame rate : 25.000 fps
Color space : YUV
Chroma subsampling : 4:2:0
Bit depth : 8 bits
Scan type : Progressive
Bits/(Pixel*Frame) : 0.131
Stream size : 1.26 GiB (95%)
Title : BBC.David.Bowie.and.the.Story.of.Ziggy.Stardustt.720p.HDTV.x264.AAC
Encoded date : UTC 2016-01-12 00:10:51
Tagged date : UTC 2016-01-12 00:57:43

Audio
ID : 2
Format : AAC
Format/Info : Advanced Audio Codec
Format profile : LC
Codec ID : 40
Duration : 59mn 39s
Bit rate mode : Variable
Bit rate : 165 Kbps
Maximum bit rate : 238 Kbps
Channel(s) : 2 channels
Channel positions : Front: L R
Sampling rate : 48.0 KHz
Compression mode : Lossy
Stream size : 70.5 MiB (5%)
Title : BBC.David.Bowie.and.the.Story.of.Ziggy.Stardustt.720p.HDTV.x264.AAC
Encoded date : UTC 2016-01-12 00:57:33
Tagged date : UTC 2016-01-12 00:57:43

Text
ID : 3
Format : Timed text
Codec ID : tx3g
Duration : 59mn 26s
Bit rate mode : Variable
Bit rate : 118 bps
Stream size : 51.4 KiB (0%)
Title : BBC.David.Bowie.and.the.Story.of.Ziggy.Stardustt.720p.HDTV.x264.AAC
Encoded date : UTC 2016-01-12 00:57:43
Tagged date : UTC 2016-01-12 00:57:43
Screenshots

BBC - David Bowie and the story of Ziggy Stardust (2012)

BBC - David Bowie and the story of Ziggy Stardust (2012)

BBC - David Bowie and the story of Ziggy Stardust (2012)

BBC - David Bowie and the story of Ziggy Stardust (2012)

Welcome to my blog - daily update!

BBC - David Bowie and the story of Ziggy Stardust (2012)