Tags
Language
Tags

David Beckham: Infamous (2021)

Posted By: notbanned
1080p (FullHD) / WEBRip IMDb
David Beckham: Infamous (2021)

David Beckham: Infamous (2021)
WEBRip 720p | MKV | 1280x720 | AVC@2798 Kbps | English AAC@165 Kbps | 2 channels | 1 h 9 min | 1.45 GiB
WEBRip 1080p | MKV | 1920x1080 | AVC@6462 Kbps | English AAC@165 Kbps | 2 channels | 1 h 9 min | 3.23 GiB
Genre: Documentary | Biography | Sport

David Beckham, a household name, footballing icon and at one point the most hated man in England. A comprehensive look at David Beckham's footballing career focusing on his England redemption, World Cup dreams, trial by media and becoming brand Becks. From humble beginnings in Leytonstone to achieving England's most capped outfield player, winning the illustrious treble and becoming the highest-paid player of all time, Beckham truly is a modern-day phenom. Taking on brand deals and appearances Beckham became the most commercially valuable player in the world playing for Goliaths, Manchester United, Real Madrid and AC Milan. There is no doubting the commercial success of brand Becks and when a player wins as much silverware as Beckham, there's no doubting their playing career either.

General
Unique ID : 149142870773161233610133636482537810040 (0x7033DF40B9DC8EB45D23FE25039AE878)
Complete name : david.beckham.infamous.2021.720p.mkv
Format : Matroska
Format version : Version 4 / Version 2
File size : 1.45 GiB
Duration : 1 h 9 min
Overall bit rate : 2 965 kb/s

Video
ID : 1
Format : AVC
Format/Info : Advanced Video Codec
Format profile : High@L3.1
Format settings, CABAC : Yes
Format settings, ReFrames : 5 frames
Codec ID : V_MPEG4/ISO/AVC
Duration : 1 h 9 min
Bit rate : 2 798 kb/s
Width : 1 280 pixels
Height : 720 pixels
Display aspect ratio : 16:9
Frame rate mode : Constant
Frame rate : 25.000 FPS
Color space : YUV
Chroma subsampling : 4:2:0
Bit depth : 8 bits
Scan type : Progressive
Bits/(Pixel*Frame) : 0.121
Stream size : 1.36 GiB (94%)
Default : Yes
Forced : No
Color range : Limited
Color primaries : BT.709
Transfer characteristics : BT.709
Matrix coefficients : BT.709

Audio
ID : 2
Format : AAC
Format/Info : Advanced Audio Codec
Format profile : LC
Codec ID : A_AAC
Duration : 1 h 9 min
Bit rate : 165 kb/s
Channel(s) : 2 channels
Channel positions : Front: L R
Sampling rate : 48.0 kHz
Frame rate : 46.875 FPS (1024 spf)
Compression mode : Lossy
Stream size : 82.2 MiB (6%)
Language : English
Default : Yes
Forced : No

Text
ID : 3
Format : UTF-8
Codec ID : S_TEXT/UTF8
Codec ID/Info : UTF-8 Plain Text
Duration : 1 h 9 min
Bit rate : 116 b/s
Count of elements : 1564
Stream size : 59.1 KiB (0%)
Title : English CC
Language : English
Default : No
Forced : No


General
Unique ID : 104106700850476761215341092530567993731 (0x4E5238A45C142CAEE64C812A7AA75983)
Complete name : david.beckham.infamous.2021.1080p.mkv
Format : Matroska
Format version : Version 4 / Version 2
File size : 3.23 GiB
Duration : 1 h 9 min
Overall bit rate : 6 629 kb/s

Video
ID : 1
Format : AVC
Format/Info : Advanced Video Codec
Format profile : High@L4
Format settings, CABAC : Yes
Format settings, ReFrames : 4 frames
Codec ID : V_MPEG4/ISO/AVC
Duration : 1 h 9 min
Bit rate : 6 462 kb/s
Width : 1 920 pixels
Height : 1 080 pixels
Display aspect ratio : 16:9
Frame rate mode : Constant
Frame rate : 25.000 FPS
Color space : YUV
Chroma subsampling : 4:2:0
Bit depth : 8 bits
Scan type : Progressive
Bits/(Pixel*Frame) : 0.125
Stream size : 3.15 GiB (97%)
Default : Yes
Forced : No
Color range : Limited
Color primaries : BT.709
Transfer characteristics : BT.709
Matrix coefficients : BT.709

Audio
ID : 2
Format : AAC
Format/Info : Advanced Audio Codec
Format profile : LC
Codec ID : A_AAC
Duration : 1 h 9 min
Bit rate : 165 kb/s
Channel(s) : 2 channels
Channel positions : Front: L R
Sampling rate : 48.0 kHz
Frame rate : 46.875 FPS (1024 spf)
Compression mode : Lossy
Stream size : 82.2 MiB (2%)
Language : English
Default : Yes
Forced : No

Text
ID : 3
Format : UTF-8
Codec ID : S_TEXT/UTF8
Codec ID/Info : UTF-8 Plain Text
Duration : 1 h 9 min
Bit rate : 116 b/s
Count of elements : 1564
Stream size : 59.1 KiB (0%)
Title : English CC
Language : English
Default : No
Forced : No


Screenshots 720p:

David Beckham: Infamous (2021)

David Beckham: Infamous (2021)

David Beckham: Infamous (2021)

David Beckham: Infamous (2021)

Screenshots 1080p:

David Beckham: Infamous (2021)

David Beckham: Infamous (2021)

David Beckham: Infamous (2021)

David Beckham: Infamous (2021)