BBC - Delphi: The Bellybutton of the Ancient World (2010)

Posted By: Tutorial
BBC - Delphi: The Bellybutton of the Ancient World (2010)

BBC - Delphi: The Bellybutton of the Ancient World (2010)
HDTV | 1280 x 720 | .MKV/AVC @ 4000 Kbps | 57mn 32s | 1.69 GB
Audio: English AC-3 192 Kbps, 2 channels | Subs: English
Genre: Documentary, History

What really went on at the ancient Greek oracle at Delphi, how did it get its awesome reputation and why is it still influential today? Michael Scott of Cambridge University uncovers the secrets of the most famous oracle in the ancient world. A vital force in ancient history for a thousand years it is now one of Greece's most beautiful tourist sites, but in its time it has been a gateway into the supernatural, a cockpit of political conflict, and a beacon for internationalism. And at its heart was the famous inscription which still inspires visitors today - 'Know Thyself'.
Related Documentaries:
Discovery Channel - Seven Wonders of Ancient Greece (2004)
National Geographic - The Greeks: Series 1 (2016)
BBC - Treasures of Ancient Greece (2015)
BBC - Greece with Simon Reeve (2016)
BBC - Who Were the Greeks (2013)
ITV - Greek Odyssey (2011)
BBC - Genius of the Ancient World (2015)
BBC - Ancient Greece: The Greatest Show on Earth (2013)

General
Unique ID : 220000028484426098253792452848100636518 (0xA58276D9E6E71DDC8F629EE9E15CF766)
Complete name : Delphi.The.Bellybutton.of.the.Ancient.World.mkv
Format : Matroska
Format version : Version 2
File size : 1.69 GiB
Duration : 57mn 32s
Overall bit rate : 4 192 Kbps
Encoded date : UTC 2010-11-25 08:18:38
Writing application : mkvmerge v4.0.0 ('The Stars were mine') built on Jun 6 2010 16:18:42
Writing library : libebml v1.0.0 + libmatroska v1.0.0

Video
ID : 1
Format : AVC
Format/Info : Advanced Video Codec
Format profile : High@L4.1
Format settings, CABAC : Yes
Format settings, ReFrames : 4 frames
Codec ID : V_MPEG4/ISO/AVC
Duration : 57mn 32s
Bit rate : 4 000 Kbps
Width : 1 280 pixels
Height : 720 pixels
Display aspect ratio : 16:9
Frame rate : 25.000 fps
Color space : YUV
Chroma subsampling : 4:2:0
Bit depth : 8 bits
Scan type : Progressive
Bits/(Pixel*Frame) : 0.174
Stream size : 1.57 GiB (93%)
Writing library : x264 core 108 r1790 8eaf8a6
Encoding settings : cabac=1 / ref=4 / deblock=1:0:0 / analyse=0x3:0x113 / me=umh / subme=9 / psy=1 / psy_rd=1.00:0.00 / mixed_ref=1 / me_range=24 / chroma_me=1 / trellis=1 / 8x8dct=1 / cqm=0 / deadzone=21,11 / fast_pskip=0 / chroma_qp_offset=-2 / threads=3 / sliced_threads=0 / nr=0 / decimate=1 / interlaced=0 / constrained_intra=0 / bframes=3 / b_pyramid=0 / b_adapt=1 / b_bias=0 / direct=1 / weightb=1 / open_gop=0 / weightp=2 / keyint=125 / keyint_min=25 / scenecut=40 / intra_refresh=0 / rc_lookahead=40 / rc=2pass / mbtree=1 / bitrate=4000 / ratetol=1.0 / qcomp=0.60 / qpmin=10 / qpmax=51 / qpstep=4 / cplxblur=20.0 / qblur=0.5 / ip_ratio=1.40 / aq=1:1.00
Language : English
Default : Yes
Forced : No

Audio
ID : 2
Format : AC-3
Format/Info : Audio Coding 3
Mode extension : CM (complete main)
Codec ID : A_AC3
Duration : 57mn 32s
Bit rate mode : Constant
Bit rate : 192 Kbps
Channel(s) : 2 channels
Channel positions : Front: L R
Sampling rate : 48.0 KHz
Bit depth : 16 bits
Compression mode : Lossy
Delay relative to video : 2ms
Stream size : 79.0 MiB (5%)
Language : English
Default : Yes
Forced : No

Text
ID : 3
Format : UTF-8
Codec ID : S_TEXT/UTF8
Codec ID/Info : UTF-8 Plain Text
Language : English
Default : No
Forced : No
Screenshots

BBC - Delphi: The Bellybutton of the Ancient World (2010)

BBC - Delphi: The Bellybutton of the Ancient World (2010)

BBC - Delphi: The Bellybutton of the Ancient World (2010)

BBC - Delphi: The Bellybutton of the Ancient World (2010)

Welcome to my blog - daily update!

BBC - Delphi: The Bellybutton of the Ancient World (2010)