(Fr5) Le dernier complot de Staline (2009)

Posted By: Morocco
(Fr5) Le dernier complot de Staline (2009)

(Fr5) Le dernier complot de Staline (2009)
TNT-Rip by Clo2 | French | 1h16min | 640 x 360 | 25.000 fps | Avi | MPEG-4 XviD @ 845 Kbps | MP3 @ 112 Kbps | 527 MB
Genre : Documentaire

Au lendemain de la Seconde Guerre mondiale, sur fond d'antisémitisme séculaire, la une de la «Pravda» révèle une information qui bouleverse l'URSS : les médecins des plus hauts dignitaires soviétiques, tous d'origine juive, ont profité de leur situation pour éliminer des membres éminents de la nomenklatura. En réalité, il s'agit d'un mensonge, une machination montée de toutes pièces. Ce qui fut appelé «le complot des blouses blanches» n'était rien d'autre qu'une conspiration politique de Joseph Staline, dont l'ambition était d'organiser une nouvelle purge au sein des instances du Parti et de durcir sa position à l'égard de l'Occident.

Format : AVI
Format/Info : Audio Video Interleave
File size : 527 MiB
Duration : 1h 16mn
Overall bit rate : 967 Kbps
Writing application : VirtualDubMod 1.5.10.3 Fr | www.virtualdub-fr.org || (build 2550/release)
Writing library : VirtualDubMod build 2550/release

Video
ID : 0
Format : MPEG-4 Visual
Format profile : Advanced Simple@L5
Format settings, BVOP : 2
Format settings, QPel : No
Format settings, GMC : No warppoints
Format settings, Matrix : Default (H.263)
Muxing mode : Packed bitstream
Codec ID : XVID
Codec ID/Hint : XviD
Duration : 1h 16mn
Bit rate : 845 Kbps
Width : 640 pixels
Height : 360 pixels
Display aspect ratio : 16:9
Frame rate : 25.000 fps
Color space : YUV
Chroma subsampling : 4:2:0
Bit depth : 8 bits
Scan type : Progressive
Compression mode : Lossy
Bits/(Pixel*Frame) : 0.147
Stream size : 461 MiB (87%)
Writing library : XviD 1.2.1 (UTC 2008-12-04)

Audio
ID : 1
Format : MPEG Audio
Format version : Version 1
Format profile : Layer 3
Mode : Joint stereo
Codec ID : 55
Codec ID/Hint : MP3
Duration : 1h 16mn
Bit rate mode : Constant
Bit rate : 112 Kbps
Channel(s) : 2 channels
Sampling rate : 48.0 KHz
Compression mode : Lossy
Stream size : 61.1 MiB (12%)
Alignment : Aligned on interleaves
Interleave, duration : 40 ms (1.00 video frame)
Interleave, preload duration : 504 ms


(Fr5) Le dernier complot de Staline (2009)

(Fr5) Le dernier complot de Staline (2009)

(Fr5) Le dernier complot de Staline (2009)

(Fr5) Le dernier complot de Staline (2009)

No Pass ;)

Un merci ?