(Fr5) Empreintes : Carolyn Carlson, le regard du geste (2009)

Posted By: Morocco
(Fr5) Empreintes : Carolyn Carlson, le regard du geste (2009)

(Fr5) Empreintes : Carolyn Carlson, le regard du geste (2009)
TNT-Rip by Clo2 | French | 51min | 640 x 360 | 25.000 fps | Avi | MPEG-4 XviD @ 894 Kbps | MP3 @ 112 Kbps | 373 MB
Genre : Documentaire

D’origine finlandaise mais de nationalité américaine, aujourd’hui installée en France, Carolyn Carlson a parcouru le monde pour danser, improviser, créer. Entrecoupé d’extraits de ses plus beaux ballets, de séances de répétitions à Paris ou à Roubaix, ainsi que d’entretiens avec la chorégraphe, ce documentaire donne à connaître une femme fantasque et inventive, drôle et profondément généreuse. Une vraie passionnée.

Format : AVI
Format/Info : Audio Video Interleave
File size : 373 MiB
Duration : 51mn 18s
Overall bit rate : 1 016 Kbps
Writing application : VirtualDubMod 1.5.10.3 Fr | www.virtualdub-fr.org || (build 2550/release)
Writing library : VirtualDubMod build 2550/release

Video
ID : 0
Format : MPEG-4 Visual
Format profile : Advanced Simple@L5
Format settings, BVOP : 2
Format settings, QPel : No
Format settings, GMC : No warppoints
Format settings, Matrix : Default (H.263)
Muxing mode : Packed bitstream
Codec ID : XVID
Codec ID/Hint : XviD
Duration : 51mn 18s
Bit rate : 894 Kbps
Width : 640 pixels
Height : 360 pixels
Display aspect ratio : 16:9
Frame rate : 25.000 fps
Color space : YUV
Chroma subsampling : 4:2:0
Bit depth : 8 bits
Scan type : Progressive
Compression mode : Lossy
Bits/(Pixel*Frame) : 0.155
Stream size : 328 MiB (88%)
Writing library : XviD 1.2.0.dev47 (UTC 2006-11-01)

Audio
ID : 1
Format : MPEG Audio
Format version : Version 1
Format profile : Layer 3
Mode : Joint stereo
Mode extension : MS Stereo
Codec ID : 55
Codec ID/Hint : MP3
Duration : 51mn 18s
Bit rate mode : Constant
Bit rate : 112 Kbps
Channel(s) : 2 channels
Sampling rate : 48.0 KHz
Compression mode : Lossy
Stream size : 41.1 MiB (11%)
Alignment : Aligned on interleaves
Interleave, duration : 40 ms (1.00 video frame)
Interleave, preload duration : 504 ms


(Fr5) Empreintes : Carolyn Carlson, le regard du geste (2009)

(Fr5) Empreintes : Carolyn Carlson, le regard du geste (2009)

(Fr5) Empreintes : Carolyn Carlson, le regard du geste (2009)

~ Liens interchangeables ~



No Pass ;)

Un merci ?

D'autres "Empreintes" ? >> Listing des documentaires ?