(Fr5) Empreintes : Daniel Pennac, la métamorphose du crabe (2010){Re-UP}

Posted By: Morocco
(Fr5) Empreintes : Daniel Pennac, la métamorphose du crabe (2010){Re-UP}

(Fr5) Empreintes : Daniel Pennac, la métamorphose du crabe (2010){Re-UP}
TNT-Rip by Clo2 | French | 52min | 640 x 368 | 25.000 fps | Avi | MPEG-4 XviD @ 895 Kbps | MP3 @ 112 Kbps | 379 MB
Genre : Documentaire

De la rivière de son enfance au plateau du Vercors, au Théâtre de la pépinière ou encore à son quartier à Paris en passant par les écoles où il insuffle aux jeunes l’envie de lire… l’auteur de Chagrin d’école et de la saga des Malaussène se confie comme jamais. Portrait d’un homme à la fois généreux, populaire, respecté, exigeant, paradoxal et solitaire.

Format : AVI
Format/Info : Audio Video Interleave
File size : 379 MiB
Duration : 52mn 5s
Overall bit rate : 1 017 Kbps
Writing application : VirtualDubMod 1.5.10.3 Fr | www.virtualdub-fr.org || (build 2550/release)
Writing library : VirtualDubMod build 2550/release

Video
ID : 0
Format : MPEG-4 Visual
Format profile : Advanced Simple@L5
Format settings, BVOP : 2
Format settings, QPel : No
Format settings, GMC : No warppoints
Format settings, Matrix : Default (H.263)
Muxing mode : Packed bitstream
Codec ID : XVID
Codec ID/Hint : XviD
Duration : 52mn 5s
Bit rate : 895 Kbps
Width : 640 pixels
Height : 368 pixels
Display aspect ratio : 16:9
Frame rate : 25.000 fps
Color space : YUV
Chroma subsampling : 4:2:0
Bit depth : 8 bits
Scan type : Progressive
Compression mode : Lossy
Bits/(Pixel*Frame) : 0.152
Stream size : 333 MiB (88%)
Writing library : XviD 1.2.1 (UTC 2008-12-04)

Audio
ID : 1
Format : MPEG Audio
Format version : Version 1
Format profile : Layer 3
Mode : Joint stereo
Mode extension : MS Stereo
Codec ID : 55
Codec ID/Hint : MP3
Duration : 52mn 5s
Bit rate mode : Constant
Bit rate : 112 Kbps
Channel(s) : 2 channels
Sampling rate : 48.0 KHz
Compression mode : Lossy
Stream size : 41.7 MiB (11%)
Alignment : Split accross interleaves
Interleave, duration : 40 ms (1.00 video frame)
Interleave, preload duration : 500 ms


(Fr5) Empreintes : Daniel Pennac, la métamorphose du crabe (2010){Re-UP}

(Fr5) Empreintes : Daniel Pennac, la métamorphose du crabe (2010){Re-UP}

No Pass ;)

Un merci ?

Pour toutes questions non liés à un post (ex : requête …) merci de m'envoyer un message privé !