(Fr5) Empreintes : Enki Bilal, au-delà de l'image (2010)

Posted By: Morocco
(Fr5) Empreintes : Enki Bilal, au-delà de l'image (2010)

(Fr5) Empreintes : Enki Bilal, au-delà de l'image (2010)
TNT-Rip by Clo2 | French | 52min | 640 x 368 | 25.000 fps | Avi | MPEG-4 XviD @ 894 Kbps | MP3 @ 112 Kbps | 378 MB
Genre : Documentaire

Filmé à Belgrade où il a passé les dix premières années de sa vie, ainsi qu'à Paris, sa ville d'exil, l'auteur et dessinateur de renom Enki Bilal a accepté de se livrer devant la caméra de Gloria Campana. Portrait tout en finesse d'un créateur déraciné et prolifique.

Format : AVI
Format/Info : Audio Video Interleave
File size : 378 MiB
Duration : 51mn 58s
Overall bit rate : 1 016 Kbps
Writing application : VirtualDubMod 1.5.10.3 Fr | www.virtualdub-fr.org || (build 2550/release)
Writing library : VirtualDubMod build 2550/release

Video
ID : 0
Format : MPEG-4 Visual
Format profile : Advanced Simple@L5
Format settings, BVOP : 2
Format settings, QPel : No
Format settings, GMC : No warppoints
Format settings, Matrix : Default (H.263)
Muxing mode : Packed bitstream
Codec ID : XVID
Codec ID/Hint : XviD
Duration : 51mn 58s
Bit rate : 894 Kbps
Width : 640 pixels
Height : 368 pixels
Display aspect ratio : 16:9
Frame rate : 25.000 fps
Color space : YUV
Chroma subsampling : 4:2:0
Bit depth : 8 bits
Scan type : Progressive
Compression mode : Lossy
Bits/(Pixel*Frame) : 0.152
Stream size : 333 MiB (88%)
Writing library : XviD 1.2.1 (UTC 2008-12-04)

Audio
ID : 1
Format : MPEG Audio
Format version : Version 1
Format profile : Layer 3
Mode : Joint stereo
Mode extension : MS Stereo
Codec ID : 55
Codec ID/Hint : MP3
Duration : 51mn 58s
Bit rate mode : Constant
Bit rate : 112 Kbps
Channel(s) : 2 channels
Sampling rate : 48.0 KHz
Compression mode : Lossy
Stream size : 41.6 MiB (11%)
Alignment : Split accross interleaves
Interleave, duration : 40 ms (1.00 video frame)
Interleave, preload duration : 500 ms


(Fr5) Empreintes : Enki Bilal, au-delà de l'image (2010)

(Fr5) Empreintes : Enki Bilal, au-delà de l'image (2010)

(Fr5) Empreintes : Enki Bilal, au-delà de l'image (2010)

~ Lien ~



No Pass ;)


Un merci ?

No Mirrors !