(Fr5) Empreintes : Eva Joly, le bonheur dans l’engagement (2010)

Posted By: Morocco
(Fr5) Empreintes : Eva Joly, le bonheur dans l’engagement (2010)

(Fr5) Empreintes : Eva Joly, le bonheur dans l’engagement (2010)
TNT-Rip by Clo2 | French | 54min | 640 x 368 | 25.000 fps | Avi | MPEG-4 XviD @ 894 Kbps | MP3 @ 112 Kbps | 396 MB
Genre : Documentaire

Depuis qu’elle a été élue députée européenne sur la liste Europe Ecologie, en juin 2009, Eva Joly a ouvert un nouveau chapitre d’une vie mouvementée, guidée par le désir de justice. De Strasbourg à Oslo en passant par la Bretagne, l’infatigable ex-magistrate évoque avec simplicité les moments clés de sa vie et la force de ses engagements.

Format : AVI
Format/Info : Audio Video Interleave
File size : 396 MiB
Duration : 54mn 29s
Overall bit rate : 1 016 Kbps
Writing application : VirtualDubMod 1.5.10.3 Fr | www.virtualdub-fr.org || (build 2550/release)
Writing library : VirtualDubMod build 2550/release

Video
ID : 0
Format : MPEG-4 Visual
Format profile : Advanced Simple@L5
Format settings, BVOP : 2
Format settings, QPel : No
Format settings, GMC : No warppoints
Format settings, Matrix : Default (MPEG)
Muxing mode : Packed bitstream
Codec ID : XVID
Codec ID/Hint : XviD
Duration : 54mn 29s
Bit rate : 894 Kbps
Width : 640 pixels
Height : 368 pixels
Display aspect ratio : 16:9
Frame rate : 25.000 fps
Color space : YUV
Chroma subsampling : 4:2:0
Bit depth : 8 bits
Scan type : Progressive
Compression mode : Lossy
Bits/(Pixel*Frame) : 0.152
Stream size : 349 MiB (88%)
Writing library : XviD 1.2.1 (UTC 2008-12-04)

Audio
ID : 1
Format : MPEG Audio
Format version : Version 1
Format profile : Layer 3
Mode : Joint stereo
Mode extension : MS Stereo
Codec ID : 55
Codec ID/Hint : MP3
Duration : 54mn 29s
Bit rate mode : Constant
Bit rate : 112 Kbps
Channel(s) : 2 channels
Sampling rate : 48.0 KHz
Compression mode : Lossy
Stream size : 43.6 MiB (11%)
Alignment : Aligned on interleaves
Interleave, duration : 40 ms (1.00 video frame)
Interleave, preload duration : 504 ms
Writing library : LAME3.98r
Encoding settings : -m j -V 4 -q 3 -lowpass 15.6 -b 112


(Fr5) Empreintes : Eva Joly, le bonheur dans l’engagement (2010)

(Fr5) Empreintes : Eva Joly, le bonheur dans l’engagement (2010)

~ Liens interchangeables ~



No Pass ;)

Un merci ?

D'autres "Empreintes" ? >> Listing des documentaires ?