(Fr5) Empreintes : Michel Butor, l'écrivain migrateur (2012)

Posted By: Morocco
(Fr5) Empreintes : Michel Butor, l'écrivain migrateur (2012)

(Fr5) Empreintes : Michel Butor, l'écrivain migrateur (2012)
TNT-Rip by Clo2 | French | 54min | 608 x 344 | 25.000 fps | Avi | MPEG-4 XviD @ 795 Kbps | MP3 @ 112 Kbps | 357 MB
Genre : Documentaire

Michel Butor est un écrivain foisonnant, un auteur unique : plus de deux mille livres, des invitations et célébrations dans le monde entier, et pourtant un homme simple, humble, généreux.

En 1957, il obtient le prix Renaudot pour son livre La Modification. Jeune écrivain, il annonce alors quel sera le projet de toute une vie : "Je voudrais que le lecteur ne soit pas simplement modifié pendant la lecture, je voudrais que quelque chose soit modifié aussi dans sa façon de voir le monde".

C’est aujourd’hui le dernier auteur vivant du Nouveau Roman, mouvement littéraire fondamental. Plus de cinquante ans après, l’écrivain-poète est resté fidèle à cet engagement par la littérature.

Il a, pendant toutes ces années, parcouru le monde, enseigné dans les plus grandes universités, et a sans cesse écrit pour que les hommes puissent un jour se comprendre. Travailler sur le langage pour "dissiper les malentendus" qui conduisent trop souvent à la guerre.

Avec l’édition de ses œuvres complètes en 2010, on découvre plus de 12 000 pages d’une œuvre inclassable, allant du roman aux essais, de la poésie aux livres d’artiste. Il a œuvré toute sa vie à inventer de nouvelles formes, en refusant les catégories, les enfermements, les cérémonies, pour que la littérature reste vivante et libre.

Michel Butor a choisi de vivre à l’Ecart - le nom de sa maison en Haute-Savoie -, loin du succès dont il préfère se méfier.

A 85 ans il nous ouvre avec une immense générosité les portes de son atelier, les coulisses de sa vie et de son écriture. Une rencontre rare et magique avec un des très grands écrivains français, dont l’actualité est encore incroyablement riche.

Format : AVI
Format/Info : Audio Video Interleave
File size : 357 MiB
Duration : 54mn 23s
Overall bit rate : 917 Kbps
Writing application : VirtualDubMod 1.5.10.3 Fr | www.virtualdub-fr.org || (build 2550/release)
Writing library : VirtualDubMod build 2550/release

Video
ID : 0
Format : MPEG-4 Visual
Format profile : Advanced Simple@L5
Format settings, BVOP : 2
Format settings, QPel : No
Format settings, GMC : No warppoints
Format settings, Matrix : Default (MPEG)
Muxing mode : Packed bitstream
Codec ID : XVID
Codec ID/Hint : XviD
Duration : 54mn 23s
Bit rate : 795 Kbps
Width : 608 pixels
Height : 344 pixels
Display aspect ratio : 16:9
Frame rate : 25.000 fps
Color space : YUV
Chroma subsampling : 4:2:0
Bit depth : 8 bits
Scan type : Progressive
Compression mode : Lossy
Bits/(Pixel*Frame) : 0.152
Stream size : 309 MiB (87%)
Writing library : XviD 64

Audio
ID : 1
Format : MPEG Audio
Format version : Version 1
Format profile : Layer 3
Mode : Joint stereo
Mode extension : MS Stereo
Codec ID : 55
Codec ID/Hint : MP3
Duration : 54mn 23s
Bit rate mode : Constant
Bit rate : 112 Kbps
Channel(s) : 2 channels
Sampling rate : 48.0 KHz
Compression mode : Lossy
Stream size : 43.6 MiB (12%)
Alignment : Aligned on interleaves
Interleave, duration : 40 ms (1.00 video frame)
Interleave, preload duration : 504 ms
Writing library : LAME3.98r
Encoding settings : -m j -V 4 -q 3 -lowpass 15.6 -b 112


(Fr5) Empreintes : Michel Butor, l'écrivain migrateur (2012)

(Fr5) Empreintes : Michel Butor, l'écrivain migrateur (2012)

(Fr5) Empreintes : Michel Butor, l'écrivain migrateur (2012)

No Pass ;)

Un merci ?
~ Lien ~

Filepost