(Fr5) Empreintes : Patrick Poivre d’Arvor, journal d’un homme pressé (2008)

Posted By: Morocco
(Fr5) Empreintes : Patrick Poivre d’Arvor, journal d’un homme pressé (2008)

(Fr5) Empreintes : Patrick Poivre d’Arvor, journal d’un homme pressé (2008)
TNT-Rip by Clo2 | French | 55min | 640 x 352 | 25.000 fps | Avi | MPEG-4 XviD @ 894 Kbps | MP3 @ 112 Kbps | 401 MB
Genre : Documentaire

Patrick Poivre d’Arvor filmé par sa fille Dorothée. L’homme qui nous a longtemps été si familier ne parle plus d’actualité mais… de lui. Il a accepté de pousser les portes de son intimité pour dévoiler son univers : son enfance, les moments forts de sa carrière, sa conception de la vie et du métier de journaliste.

Format : AVI
Format/Info : Audio Video Interleave
File size : 401 MiB
Duration : 55mn 13s
Overall bit rate : 1 016 Kbps
Writing application : VirtualDubMod 1.5.10.3 Fr | www.virtualdub-fr.org || (build 2550/release)
Writing library : VirtualDubMod build 2550/release

Video
ID : 0
Format : MPEG-4 Visual
Format profile : Advanced Simple@L5
Format settings, BVOP : 2
Format settings, QPel : No
Format settings, GMC : No warppoints
Format settings, Matrix : Default (H.263)
Muxing mode : Packed bitstream
Codec ID : XVID
Codec ID/Hint : XviD
Duration : 55mn 13s
Bit rate : 894 Kbps
Width : 640 pixels
Height : 352 pixels
Display aspect ratio : 16:9
Frame rate : 25.000 fps
Color space : YUV
Chroma subsampling : 4:2:0
Bit depth : 8 bits
Scan type : Progressive
Compression mode : Lossy
Bits/(Pixel*Frame) : 0.159
Stream size : 353 MiB (88%)
Writing library : XviD 1.2.0.dev47 (UTC 2006-11-01)

Audio
ID : 1
Format : MPEG Audio
Format version : Version 1
Format profile : Layer 3
Mode : Joint stereo
Codec ID : 55
Codec ID/Hint : MP3
Duration : 55mn 13s
Bit rate mode : Constant
Bit rate : 112 Kbps
Channel(s) : 2 channels
Sampling rate : 48.0 KHz
Compression mode : Lossy
Stream size : 44.2 MiB (11%)
Alignment : Aligned on interleaves
Interleave, duration : 40 ms (1.00 video frame)
Interleave, preload duration : 504 ms


(Fr5) Empreintes : Patrick Poivre d’Arvor, journal d’un homme pressé (2008)

(Fr5) Empreintes : Patrick Poivre d’Arvor, journal d’un homme pressé (2008)

(Fr5) Empreintes : Patrick Poivre d’Arvor, journal d’un homme pressé (2008)

~ Liens interchangeables ~



No Pass ;)

Un merci ?

D'autres "Empreintes" ? >> Listing des documentaires ?