Tags
Language
Tags

SBS - Every Family Has A Secret (2019)

Posted By: notbanned
1080p (FullHD) / WEBRip IMDb
SBS - Every Family Has A Secret (2019)

SBS - Every Family Has A Secret (2019)
HDTV | 1920x1080 | .MKV/AVC @ 3661 Kbps | 3x~52min | 4.28 GiB
Audio: English MP2 192 kbps, 2 channels | Subs: None
Genre: Documentary

Presented by Noni Hazlehurst this masterfully crafted observational documentary series follows everyday Australians on a life changing journey, seeking out the hidden secrets within their families. Revealing dark pasts, lies and buried scandals, Every Family has a Secret tells astonishing stories that will shock, move and captivate.

General
Complete name : every.family.has.a.Sct.part1.1080p.mkv
Format : Matroska
Format version : Version 4 / Version 2
File size : 1.45 GiB
Duration : 52 min 53 s
Overall bit rate : 3 931 kb/s

Video
ID : 1
Format : AVC
Format/Info : Advanced Video Codec
Format profile : High@L4
Format settings, CABAC : Yes
Format settings, ReFrames : 4 frames
Codec ID : V_MPEG4/ISO/AVC
Duration : 52 min 53 s
Bit rate : 3 661 kb/s
Width : 1 920 pixels
Height : 1 080 pixels
Display aspect ratio : 16:9
Frame rate mode : Constant
Frame rate : 25.000 FPS
Standard : Component
Color space : YUV
Chroma subsampling : 4:2:0
Bit depth : 8 bits
Scan type : MBAFF
Bits/(Pixel*Frame) : 0.071
Stream size : 1.35 GiB (93%)
Language : English
Default : Yes
Forced : No
Color range : Limited
Color primaries : BT.709
Transfer characteristics : BT.709
Matrix coefficients : BT.709

Audio
ID : 2
Format : MPEG Audio
Format version : Version 1
Format profile : Layer 2
Codec ID : A_MPEG/L2
Codec ID/Hint : MP2
Duration : 52 min 53 s
Bit rate mode : Constant
Bit rate : 192 kb/s
Channel(s) : 2 channels
Sampling rate : 48.0 kHz
Compression mode : Lossy
Stream size : 72.6 MiB (5%)
Language : English
Default : Yes
Forced : No


Screenshots:

SBS - Every Family Has A Secret (2019)

SBS - Every Family Has A Secret (2019)

SBS - Every Family Has A Secret (2019)

SBS - Every Family Has A Secret (2019)