Tags
Language
Tags

Explore The Lake District (2004)

Posted By: notbanned
SD / DVDRip
Explore The Lake District (2004)

Explore The Lake District (2004)
DVDRip | 702x520 | .MKV/AVC @ 3082 Kbps | 59 min 37 s | 1.33 GiB
Audio: English AAC 112 kbps, 2 channels | Subs: None
Genre: Documentary

Travel guide detailing three popular walks through the Lake District, Britain's largest National Park. Presenter Bill Birkett takes the viewer through some of the most beautiful countryside in the region.

General
Unique ID : 265291481298187152807306144138010422503 (0xC79547E1595688DC8AE8E3D47A69ECE7)
Complete name : explorethelake.mkv
Format : Matroska
Format version : Version 4 / Version 2
File size : 1.33 GiB
Duration : 59 min 37 s
Overall bit rate : 3 196 kb/s

Video
ID : 1
Format : AVC
Format/Info : Advanced Video Codec
Format profile : High@L3.1
Format settings, CABAC : Yes
Format settings, ReFrames : 5 frames
Codec ID : V_MPEG4/ISO/AVC
Duration : 59 min 37 s
Bit rate : 3 082 kb/s
Width : 702 pixels
Height : 520 pixels
Display aspect ratio : 4:3
Frame rate mode : Constant
Frame rate : 25.000 FPS
Color space : YUV
Chroma subsampling : 4:2:0
Bit depth : 8 bits
Scan type : Progressive
Bits/(Pixel*Frame) : 0.338
Stream size : 1.28 GiB (96%)
Writing library : x264 core 159 r2991 1771b55
Encoding settings : cabac=1 / ref=5 / deblock=1:0:0 / analyse=0x3:0x113 / me=umh / subme=8 / psy=1 / psy_rd=1.00:0.00 / mixed_ref=1 / me_range=16 / chroma_me=1 / trellis=2 / 8x8dct=1 / cqm=0 / deadzone=21,11 / fast_pskip=0 / chroma_qp_offset=-2 / threads=16 / lookahead_threads=2 / sliced_threads=0 / nr=0 / decimate=1 / interlaced=0 / bluray_compat=0 / constrained_intra=0 / bframes=3 / b_pyramid=2 / b_adapt=1 / b_bias=0 / direct=3 / weightb=1 / open_gop=0 / weightp=2 / keyint=250 / keyint_min=25 / scenecut=40 / intra_refresh=0 / rc_lookahead=50 / rc=crf / mbtree=1 / crf=23.0 / qcomp=0.60 / qpmin=0 / qpmax=69 / qpstep=4 / ip_ratio=1.40 / aq=1:1.00
Default : Yes
Forced : No

Audio
ID : 2
Format : AAC
Format/Info : Advanced Audio Codec
Format profile : LC
Codec ID : A_AAC
Duration : 59 min 37 s
Bit rate : 112 kb/s
Channel(s) : 2 channels
Channel positions : Front: L R
Sampling rate : 48.0 kHz
Frame rate : 46.875 FPS (1024 spf)
Compression mode : Lossy
Delay relative to video : 9 ms
Stream size : 47.7 MiB (4%)
Language : English
Default : No
Forced : No

Menu
00:00:00.000 : en:Chapter 01
00:18:13.200 : en:Chapter 02
00:32:28.000 : en:Chapter 03


Screenshots:

Explore The Lake District (2004)

Explore The Lake District (2004)

Explore The Lake District (2004)

Explore The Lake District (2004)