Fighting for a Generation: 20 Years of the UFC (2013)

Posted By: Tutorial
1080p (FullHD) / WEBRip IMDb
Fighting for a Generation: 20 Years of the UFC (2013)

Fighting for a Generation: 20 Years of the UFC (2013)
1080p BluRay | 1920 x 1080 | .MKV/AVC @ 8343 Kbps | 1h 30mn | English AC-3 320 kbps, 2 channels | 5.47 GB
Genre: Documentary

Fighting for a Generation: 20 Years of the UFC is an oral and visual documentary on the two decade rise of the Ultimate Fighting Championship.
Over 60 interviews were conducted over a 4 month period to let the viewer truly understand how the UFC has become what it is today. From the early days, dealing with political pressure and financial hardships to successfully building a worldwide brand, the UFC has gone through struggles that no other sports franchise has faced only to come out on the winning end. With the 20 year anniversary of UFC 1 occurring in November 2013, the UFC wanted to celebrate in a way that would give the fans an inside look at the meteoric rise of one of the top sports franchises in the world.

General
Unique ID : 213092889738384282383616669951224565377 (0xA050329E52AB7EF5B8A4F332E541CE81)
Complete name : fighting.for.a.generation.20.years.of.the.ufc.2013_1080.mkv
Format : Matroska
Format version : Version 4 / Version 2
File size : 5.47 GiB
Duration : 1h 30mn
Overall bit rate : 8 663 Kbps
Encoded date : UTC 2015-10-01 20:33:54
Writing application : mkvmerge v8.4.0 ('A better way to fly') 32bit
Writing library : libebml v1.3.1 + libmatroska v1.4.2
DURATION : 01:30:19.664000000
NUMBER_OF_FRAMES : 129942
NUMBER_OF_BYTES : 5651045825
_STATISTICS_WRITING_APP : mkvmerge v8.4.0 ('A better way to fly') 32bit
_STATISTICS_WRITING_DATE_UTC : 2015-10-01 20:33:54
_STATISTICS_TAGS : BPS DURATION NUMBER_OF_FRAMES NUMBER_OF_BYTES

Video
ID : 1
Format : AVC
Format/Info : Advanced Video Codec
Format profile : High@L4.1
Format settings, CABAC : Yes
Format settings, ReFrames : 4 frames
Codec ID : V_MPEG4/ISO/AVC
Duration : 1h 30mn
Bit rate : 8 343 Kbps
Width : 1 920 pixels
Height : 1 080 pixels
Display aspect ratio : 16:9
Frame rate : 23.976 fps
Color space : YUV
Chroma subsampling : 4:2:0
Bit depth : 8 bits
Scan type : Progressive
Bits/(Pixel*Frame) : 0.168
Stream size : 5.16 GiB (94%)
Writing library : x264 core 148 r2597 e86f3a1
Encoding settings : cabac=1 / ref=4 / deblock=1:-1:-1 / analyse=0x3:0x133 / me=umh / subme=7 / psy=1 / psy_rd=1.00:0.00 / mixed_ref=1 / me_range=16 / chroma_me=1 / trellis=1 / 8x8dct=1 / cqm=0 / deadzone=21,11 / fast_pskip=0 / chroma_qp_offset=-2 / threads=9 / lookahead_threads=1 / sliced_threads=0 / nr=0 / decimate=1 / interlaced=0 / bluray_compat=0 / constrained_intra=0 / bframes=3 / b_pyramid=2 / b_adapt=2 / b_bias=0 / direct=3 / weightb=1 / open_gop=0 / weightp=2 / keyint=240 / keyint_min=23 / scenecut=40 / intra_refresh=0 / rc_lookahead=50 / rc=2pass / mbtree=0 / bitrate=8343 / ratetol=1.0 / qcomp=0.60 / qpmin=10 / qpmax=51 / qpstep=4 / cplxblur=20.0 / qblur=0.5 / vbv_maxrate=62500 / vbv_bufsize=78125 / nal_hrd=none / filler=0 / ip_ratio=1.40 / pb_ratio=1.30 / aq=1:1.00
Default : Yes
Forced : No

Audio
ID : 2
Format : AC-3
Format/Info : Audio Coding 3
Mode extension : CM (complete main)
Codec ID : A_AC3
Duration : 1h 30mn
Bit rate mode : Constant
Bit rate : 320 Kbps
Channel(s) : 2 channels
Channel positions : Front: L R
Sampling rate : 48.0 KHz
Bit depth : 16 bits
Compression mode : Lossy
Stream size : 207 MiB (4%)
Language : English
Default : Yes
Forced : No

Menu
00:00:00.000 : en:00:00:00.000
00:02:02.522 : en:00:02:02.522
00:13:33.646 : en:00:13:33.646
00:21:21.647 : en:00:21:21.647
00:33:09.554 : en:00:33:09.554
00:41:37.195 : en:00:41:37.195
00:50:44.875 : en:00:50:44.875
01:03:29.372 : en:01:03:29.372
01:09:35.304 : en:01:09:35.304
01:12:58.874 : en:01:12:58.874
01:16:07.296 : en:01:16:07.296
01:20:39.902 : en:01:20:39.902
01:22:12.261 : en:01:22:12.261
01:25:18.313 : en:01:25:18.313
01:30:09.237 : en:01:30:09.237
Screenshots

Fighting for a Generation: 20 Years of the UFC (2013)

Fighting for a Generation: 20 Years of the UFC (2013)

Fighting for a Generation: 20 Years of the UFC (2013)

Fighting for a Generation: 20 Years of the UFC (2013)


Fighting for a Generation: 20 Years of the UFC (2013)