Final Destination 5 (Release August 12, 2011) Trailer

Posted By: a_l_chemist
Final Destination 5 (Release August 12, 2011) Trailer

Final Destination 5 (Release August 12, 2011) Trailer
MKV | AVC | 1920x800, 18 Mbps | English: AC3, 2ch, 192 kbps | 02:08 mins | 275 MB
Genre: Horror | Thriller

Final Destination 5 is an upcoming 2011 3D supernatural horror film written by Eric Heisserer and directed by Steven Quale. Final Destination 5 is the fifth installment to the Final Destination film franchise, which will star Nicholas D'Agosto, Emma Bell, Miles Fisher, Arlen Escarpeta, David Koechner and Tony Todd. Todd is the only returning cast member of the series.

Plot: Death stalks a group of co-workers who avoid a grisly demise in a massive suspension bridge collapse after one of them experiences a terrifying premonition.
–from wikipedia
…..IMDb | Rovi
Final Destination 5 (Release August 12, 2011) Trailer

Final Destination 5 (Release August 12, 2011) Trailer

Final Destination 5 (Release August 12, 2011) Trailer

Final Destination 5 (Release August 12, 2011) Trailer

Final Destination 5 (Release August 12, 2011) Trailer

General
Complete name : E:\Movies\Trailers\Final Destination 5\Final_Destination_5_Trailer.mkv
Format : Matroska
File size : 275 MiB
Duration : 2mn 8s
Overall bit rate : 18.0 Mbps
Movie name : Final Destination 5 Trailer
Encoded date : UTC 2011-06-25 20:49:54
Writing application : mkvmerge v4.8.0 ('I Got The…') May 24 2011 03:12:58
Writing library : libebml v1.2.0 + libmatroska v1.1.0

Video
ID : 1
Format : AVC
Format/Info : Advanced Video Codec
Format profile : High@L4.1
Format settings, CABAC : Yes
Format settings, ReFrames : 4 frames
Format settings, GOP : M=4, N=30
Muxing mode : Header stripping
Codec ID : V_MPEG4/ISO/AVC
Duration : 2mn 8s
Bit rate : 18.0 Mbps
Width : 1 920 pixels
Height : 800 pixels
Display aspect ratio : 2.40:1
Frame rate : 23.976 fps
Color space : YUV
Chroma subsampling : 4:2:0
Bit depth : 8 bits
Scan type : Progressive
Bits/(Pixel*Frame) : 0.489
Stream size : 267 MiB (97%)
Title : Final Destination 5
Writing library : x264 core 114 r1913 5fd3dce
Encoding settings : cabac=1 / ref=3 / deblock=1:0:0 / analyse=0x3:0x113 / me=hex / subme=8 / psy=1 / psy_rd=1.00:0.00
mixed_ref=1 / me_range=16 / chroma_me=1 / trellis=1 / 8x8dct=1 / cqm=0 / deadzone=21,11 / fast_pskip=1 / chroma_qp_offset=-2 / threads=3
sliced_threads=0 / nr=0 / decimate=1 / interlaced=0 / constrained_intra=0 / bframes=3 / b_pyramid=2 / b_adapt=1 / b_bias=0 / direct=1
weightb=1 / open_gop=0 / weightp=2 / keyint=250 / keyint_min=23 / scenecut=40 / intra_refresh=0 / rc_lookahead=70 / rc=abr / mbtree=1
bitrate=18000 / ratetol=1.0 / qcomp=0.60 / qpmin=0 / qpmax=69 / qpstep=4 / ip_ratio=1.40 / aq=1:1.00
Language : English

Audio
ID : 2
Format : AC-3
Format/Info : Audio Coding 3
Mode extension : CM (complete main)
Muxing mode : Header stripping
Codec ID : A_AC3
Duration : 2mn 8s
Bit rate mode : Constant
Bit rate : 192 Kbps
Channel(s) : 2 channels
Channel positions : Front: L R
Sampling rate : 48.0 KHz
Bit depth : 16 bits
Compression mode : Lossy
Stream size : 2.93 MiB (1%)
Title : English
Language : English

Filesonic
download

Fileserve
mirror #1

Wupload
mirror #2

Trailers on AvaxHome

My blog on AvaxHome

.: No Mirrors Please :.