(Fr5) Fontainebleau, révolution au château (2012)

Posted By: Morocco
(Fr5) Fontainebleau, révolution au château (2012)

(Fr5) Fontainebleau, révolution au château (2012)
TNT-Rip by Clo2 | French | 52min | 640 x 368 | 25.000 fps | Avi | MPEG-4 XviD @ 893 Kbps | MP3 @ 112 Kbps | 377 MB
Genre : Documentaire

La «Maison des Siècles»… C'est ainsi que Napoléon 1er appelait Fontainebleau, ce château qui a la particularité d'avoir hébergé plus de 32 souverains dans ses murs ! Aucun château français n'a connu autant d'illustres résidents. Longtemps endormi, le palais connaît aujourd'hui une renaissance, qui s'illustre par une croissance exceptionnelle de ses visiteurs : en deux ans, sa fréquentation a augmenté de 25%, une progression trois fois supérieure à la moyenne des Musées Nationaux. Comment explique-t-on un tel succès ? Par quelle stratégie le nombre de visiteurs s'est-il tant accru ?

Format : AVI
Format/Info : Audio Video Interleave
File size : 377 MiB
Duration : 51mn 59s
Overall bit rate : 1 014 Kbps
Writing application : VirtualDubMod 1.5.10.3 Fr | www.virtualdub-fr.org || (build 2550/release)
Writing library : VirtualDubMod build 2550/release

Video
ID : 0
Format : MPEG-4 Visual
Format profile : Advanced Simple@L5
Format settings, BVOP : 2
Format settings, QPel : No
Format settings, GMC : No warppoints
Format settings, Matrix : Default (MPEG)
Muxing mode : Packed bitstream
Codec ID : XVID
Codec ID/Hint : XviD
Duration : 51mn 59s
Bit rate : 893 Kbps
Width : 640 pixels
Height : 368 pixels
Display aspect ratio : 1.739
Frame rate : 25.000 fps
Color space : YUV
Chroma subsampling : 4:2:0
Bit depth : 8 bits
Scan type : Progressive
Compression mode : Lossy
Bits/(Pixel*Frame) : 0.152
Stream size : 332 MiB (88%)
Writing library : XviD 64

Audio
ID : 1
Format : MPEG Audio
Format version : Version 1
Format profile : Layer 3
Mode : Joint stereo
Mode extension : MS Stereo
Codec ID : 55
Codec ID/Hint : MP3
Duration : 51mn 59s
Bit rate mode : Constant
Bit rate : 112 Kbps
Channel(s) : 2 channels
Sampling rate : 48.0 KHz
Compression mode : Lossy
Stream size : 41.7 MiB (11%)
Alignment : Aligned on interleaves
Interleave, duration : 40 ms (1.00 video frame)
Interleave, preload duration : 504 ms
Writing library : LAME3.98r
Encoding settings : -m j -V 4 -q 3 -lowpass 15.6 -b 112


(Fr5) Fontainebleau, révolution au château (2012)

(Fr5) Fontainebleau, révolution au château (2012)

(Fr5) Fontainebleau, révolution au château (2012)

(Fr5) Fontainebleau, révolution au château (2012)

(Fr5) Fontainebleau, révolution au château (2012)

No Pass ;)

Un merci ?